Mac Users: Anybody Try XLD for secure ripping?

Discussion in 'Audio Hardware' started by CardinalFang, Oct 30, 2008.

  1. CardinalFang

    CardinalFang New Member

    Location:
    ....
    I recently came across XLD while browsing Hydrogen Audio. It seems to be a secure ripper for OSX. I'm on a PC these days and very happy with EAC. But I have friends who still use OSX and was wondering how XLD compares. Will it show peak values? If so, that could be useful for our CD comparison threads.

    http://tmkk.hp.infoseek.co.jp/xld/index_e.html
  2. E-Rock

    E-Rock Active Member

    Location:
    Madison, WI, USA
    I just started experimenting with XLD a few days ago. My first impression - extremely slow. I have an 8-core MacPro (2 quad-core Xeon processors), and XLD takes at least 2-3 times longer than EAC does on my AMD single-core PC when ripping the same CD. I also find the log produced by XLD to be a bit confusing, as the CRC values never seem to match those from AccurateRip, yet the log usually states "Accurately Ripped!" - but then sometimes it doesn't. Go figure....

    Also, I noticed an odd difference in the start times of Track 1 of Steve's version of the Stray Cats' Built For Speed CD ripped with EAC vs. XLD. The audio from the XLD rip started nearly a half-second later from the start of the track (i.e. after the track time began to tick by at the start of playback). This playback difference from the EAC rip made no sense to me at all. :confused:

    Perhaps I haven't configured XLD properly? Could be, but the XLD preference settings are really quite straightforward.

    Bottom line - for me, the jury's still out on XLD. :sigh:
  3. shoegazer

    shoegazer New Member

    Location:
    nowhere
    I recently configured XLD on my iMac and it seemed to work great, I ripped the Santana "Caravanserai" remaster and the resulting log seemed fine to me:



    X Lossless Decoder version 20080926 (93.3)

    XLD extraction logfile from 2008-10-23 12:04:22 +1100

    Santana / Caravanserai

    Used drive : OPTIARC DVD RW AD-5630A (revision 1AHM)

    Use cdparanoia mode : YES (CDParanoia III 10.2 engine)
    Disable audio cache : OK for the drive with cache less than 2750KB
    Make use of C2 pointers : NO
    Read offset correction : 48
    Max retry count : 100

    TOC of the extracted CD
    Track | Start | Length | Start sector | End sector
    ---------------------------------------------------------
    1 | 00:00:00 | 04:28:57 | 0 | 20156
    2 | 04:28:57 | 03:54:00 | 20157 | 37706
    3 | 08:22:57 | 03:00:05 | 37707 | 51211
    4 | 11:22:62 | 02:18:68 | 51212 | 61629
    5 | 13:41:55 | 06:04:00 | 61630 | 88929
    6 | 19:45:55 | 07:40:42 | 88930 | 123471
    7 | 27:26:22 | 04:12:38 | 123472 | 142409
    8 | 31:38:60 | 06:15:35 | 142410 | 170569
    9 | 37:54:20 | 04:34:45 | 170570 | 191164
    10 | 42:28:65 | 09:05:25 | 191165 | 232064

    List of alternate offset correction values
    # | Absolute | Relative | Confidence
    ------------------------------------------
    1 | 6 | -42 | 2

    All Tracks
    Album gain : -4.91 dB
    Peak : 0.998901
    Track 01
    Filename : /Santana - Caravanserai/01 - Eternal Caravan Of Reincarnation.flac

    Track gain : 4.30 dB
    Peak : 0.615417
    CRC32 hash (test run) : 259E8B58
    CRC32 hash : 259E8B58
    CRC32 hash (skip zero) : 093F4930
    AccurateRip signature : 9C8EFDF7
    ->Accurately ripped! (confidence 14)
    Statistics
    Read error : 0
    Skipped (treated as error) : 0
    Edge jitter error (maybe fixed) : 0
    Atom jitter error (maybe fixed) : 0
    Drift error (maybe fixed) : 0
    Dropped bytes error (maybe fixed) : 0
    Duplicated bytes error (maybe fixed) : 0
    Inconsistency in error sectors : 0

    Track 02
    Filename : /Santana - Caravanserai/02 - Waves Within.flac

    Track gain : -3.00 dB
    Peak : 0.998199
    CRC32 hash (test run) : 67BB22EF
    CRC32 hash : 67BB22EF
    CRC32 hash (skip zero) : E62E0758
    AccurateRip signature : 933C9677
    ->Accurately ripped! (confidence 14)
    Statistics
    Read error : 0
    Skipped (treated as error) : 0
    Edge jitter error (maybe fixed) : 0
    Atom jitter error (maybe fixed) : 0
    Drift error (maybe fixed) : 0
    Dropped bytes error (maybe fixed) : 0
    Duplicated bytes error (maybe fixed) : 0
    Inconsistency in error sectors : 0

    Track 03
    Filename : /Santana - Caravanserai/03 - Look Up (To See What's Coming Down).flac

    Track gain : -2.86 dB
    Peak : 0.971436
    CRC32 hash (test run) : 8AC5FF58
    CRC32 hash : 8AC5FF58
    CRC32 hash (skip zero) : A0E7A7C6
    AccurateRip signature : E500E694
    ->Accurately ripped! (confidence 14)
    Statistics
    Read error : 0
    Skipped (treated as error) : 0
    Edge jitter error (maybe fixed) : 0
    Atom jitter error (maybe fixed) : 0
    Drift error (maybe fixed) : 0
    Dropped bytes error (maybe fixed) : 0
    Duplicated bytes error (maybe fixed) : 0
    Inconsistency in error sectors : 0

    Track 04
    Filename : /Santana - Caravanserai/04 - Just In Time To See The Sun.flac

    Track gain : -5.15 dB
    Peak : 0.998901
    CRC32 hash (test run) : 48B0905D
    CRC32 hash : 48B0905D
    CRC32 hash (skip zero) : BF4F686D
    AccurateRip signature : ED6B7D30
    ->Accurately ripped! (confidence 14)
    Statistics
    Read error : 0
    Skipped (treated as error) : 0
    Edge jitter error (maybe fixed) : 0
    Atom jitter error (maybe fixed) : 0
    Drift error (maybe fixed) : 0
    Dropped bytes error (maybe fixed) : 0
    Duplicated bytes error (maybe fixed) : 0
    Inconsistency in error sectors : 0

    Track 05
    Filename : /Santana - Caravanserai/05 - Song Of The Wind.flac

    Track gain : -4.93 dB
    Peak : 0.998901
    CRC32 hash (test run) : BFB8160B
    CRC32 hash : BFB8160B
    CRC32 hash (skip zero) : 8E38E947
    AccurateRip signature : 99D84103
    ->Accurately ripped! (confidence 14)
    Statistics
    Read error : 0
    Skipped (treated as error) : 0
    Edge jitter error (maybe fixed) : 0
    Atom jitter error (maybe fixed) : 0
    Drift error (maybe fixed) : 0
    Dropped bytes error (maybe fixed) : 0
    Duplicated bytes error (maybe fixed) : 0
    Inconsistency in error sectors : 0

    Track 06
    Filename : /Santana - Caravanserai/06 - All The Love Of The Universe.flac

    Track gain : -5.66 dB
    Peak : 0.998840
    CRC32 hash (test run) : F103522C
    CRC32 hash : F103522C
    CRC32 hash (skip zero) : 03245470
    AccurateRip signature : F04D30A1
    ->Accurately ripped! (confidence 14)
    Statistics
    Read error : 0
    Skipped (treated as error) : 0
    Edge jitter error (maybe fixed) : 0
    Atom jitter error (maybe fixed) : 0
    Drift error (maybe fixed) : 0
    Dropped bytes error (maybe fixed) : 0
    Duplicated bytes error (maybe fixed) : 0
    Inconsistency in error sectors : 0

    Track 07
    Filename : /Santana - Caravanserai/07 - Future Primitive.flac

    Track gain : -0.80 dB
    Peak : 0.913879
    CRC32 hash (test run) : D36E1DD5
    CRC32 hash : D36E1DD5
    CRC32 hash (skip zero) : E0D25D82
    AccurateRip signature : A6AC8515
    ->Accurately ripped! (confidence 14)
    Statistics
    Read error : 0
    Skipped (treated as error) : 0
    Edge jitter error (maybe fixed) : 1
    Atom jitter error (maybe fixed) : 0
    Drift error (maybe fixed) : 0
    Dropped bytes error (maybe fixed) : 0
    Duplicated bytes error (maybe fixed) : 1
    Inconsistency in error sectors : 0

    Track 08
    Filename : /Santana - Caravanserai/08 - Stone Flower.flac

    Track gain : -3.97 dB
    Peak : 0.998901
    CRC32 hash (test run) : D1525E82
    CRC32 hash : D1525E82
    CRC32 hash (skip zero) : D06F82D1
    AccurateRip signature : E4CD6AEB
    ->Accurately ripped! (confidence 14)
    Statistics
    Read error : 0
    Skipped (treated as error) : 0
    Edge jitter error (maybe fixed) : 0
    Atom jitter error (maybe fixed) : 0
    Drift error (maybe fixed) : 0
    Dropped bytes error (maybe fixed) : 0
    Duplicated bytes error (maybe fixed) : 0
    Inconsistency in error sectors : 0

    Track 09
    Filename : /Santana - Caravanserai/09 - La Fuente Del Ritmo.flac

    Track gain : -5.61 dB
    Peak : 0.998901
    CRC32 hash (test run) : E05F4FC2
    CRC32 hash : E05F4FC2
    CRC32 hash (skip zero) : 1B371AB2
    AccurateRip signature : C2159F28
    ->Accurately ripped! (confidence 14)
    Statistics
    Read error : 0
    Skipped (treated as error) : 0
    Edge jitter error (maybe fixed) : 2
    Atom jitter error (maybe fixed) : 0
    Drift error (maybe fixed) : 0
    Dropped bytes error (maybe fixed) : 0
    Duplicated bytes error (maybe fixed) : 0
    Inconsistency in error sectors : 0

    Track 10
    Filename : /Santana - Caravanserai/10 - Every Step Of The Way.flac

    Track gain : -5.40 dB
    Peak : 0.957825
    CRC32 hash (test run) : A3C0720D
    CRC32 hash : A3C0720D
    CRC32 hash (skip zero) : 52F01AA0
    AccurateRip signature : EF541BBB
    ->Accurately ripped! (confidence 13)
    Statistics
    Read error : 0
    Skipped (treated as error) : 0
    Edge jitter error (maybe fixed) : 0
    Atom jitter error (maybe fixed) : 0
    Drift error (maybe fixed) : 0
    Dropped bytes error (maybe fixed) : 0
    Duplicated bytes error (maybe fixed) : 0
    Inconsistency in error sectors : 0

    No errors occurred

    End of status report
  4. Raf

    Raf Forum Resident

    Location:
    Toronto, Ontario
    I just downloaded XLD. I haven't tried it out for anything you're asking about yet, but I found out it can rip CDs with hidden tracks in the pregap! What a great find! Thanks for posting about this! :thumbsup:
  5. Coldacre

    Coldacre Well-Known Member

    Location:
    Melbourne
    for those using it, how does it rate compared to Max?
  6. George P

    George P Love Will Lead Us

    Location:
    NYC
    Looks like it does show peak values! Nice find, Keith! :righton:

    Does anyone know if EAC rounds up or down? We need to know so that we can get an accurate match for peak values.
  7. jpbarn

    jpbarn Active Member

    Location:
    Northern NJ
    That's strange...only speed comparison I've made is its ability to decode flacs, & it's much faster than xAct, so much so that I thought it might be doing it wrong. It wasn't.
  8. Radiotron

    Radiotron Tube Designer

    Location:
    Montreal, Canada
    Love XLD. I even got rid of Boot Camp. No need for EAC anymore.
  9. vomitgod

    vomitgod New Member

    Location:
    Boston
    Seconded. I'm a long-time EAC user, and as far as I can surmise, no difference between the two - CRC's, FLAC compression rates yield the exact same binary file size, and a log file.

    I'm not that thrilled about using the slot-loading optical drive on my MBP, so I might buy an external drive, but aside from that, enthusiastic thumbs up here! :righton:
  10. Raf

    Raf Forum Resident

    Location:
    Toronto, Ontario
    So far XLD looks like it can do everything that EAC does, and XLD definitely has a better interface (read: comprehensible). Looks like a winner!
  11. Baron Von Talbot

    Baron Von Talbot Well-Known Member

    Only major letdown is XLD cannot decode FLAC's into apple lossless files directly ! So I always have to import the AIFF's into iTunes - highlight them and choose convert to lossless. A pita !
  12. Coldacre

    Coldacre Well-Known Member

    Location:
    Melbourne
    that's not so bad, it takes iTunes all of 45 seconds to encode an album to ALAC
  13. bowling-name

    bowling-name Active Member

    Location:
    North Hollywood
    I would also like to know this...
  14. George P

    George P Love Will Lead Us

    Location:
    NYC
    First off, Max doesn't give peak values. To me this is a major difference, as XLD seems to be the only program that can perform this function on a MAC.
  15. Eileen O

    Eileen O New Member

    Yes, XLD can do this. Set preferences to 'Apple Lossless', set destination folder, then open the flac files you wish to convert.

    The current version of Max does not really compare to XLD at all. Max still cannot generate a ripping log, and it uses the old (9.8) cdparanoia version. Cdparanoia 10.2 is a major rehaul of the engine. 10.2 is the most advanced ripping engine in existence. It also renders the caching issue irrelevant on all extant drives.
  16. Anthology123

    Anthology123 Well-Known Member

    I use XLD all the time. Great for expanding those .wv files into whole albums.
  17. noladaoh

    noladaoh Active Member

    Location:
    Now I'm Here
    If XLD can make a perfect rip using CDParanoia does it matter what type of drive is used?
  18. vomitgod

    vomitgod New Member

    Location:
    Boston
    As a long-time portable Apple user, their slot-loading drives tend to wear out in my experience (i.e. thousands of discs I/O = the "grab" motor dying). And maybe a few second's difference access, spin up/down time, which adds up if you are archiving a library, etc.

    Drive differences aside, the accuracy of the results isn't what I'm worried about! :)
  19. George P

    George P Love Will Lead Us

    Location:
    NYC
  20. George P

    George P Love Will Lead Us

    Location:
    NYC
    Man, XLD is sssssssssssssssslllllllllllllllllllllllllooooooooooooooooowwwwwwwwwww.

    Looks like it does in 5X realtime. :sigh:
  21. George P

    George P Love Will Lead Us

    Location:
    NYC


    My rip on XLD (first time) yielded this: notice no peak values :shake:

    Did I configure it wrong?

    ______________________

    X Lossless Decoder version 20080926 (93.3)

    XLD extraction logfile from 2008-10-31 18:12:17 -0400

    The Doors / Alive She Cried [Live]

    Used drive : MATSHITA DVD-R UJ-846 (revision FAAG)

    Use cdparanoia mode : YES (CDParanoia III 10.2 engine)
    Disable audio cache : OK for the drive with cache less than 2750KB
    Make use of C2 pointers : NO
    Read offset correction : 102
    Max retry count : 100

    TOC of the extracted CD
    Track | Start | Length | Start sector | End sector
    ---------------------------------------------------------
    1 | 00:00:32 | 06:18:70 | 32 | 28451
    2 | 06:19:27 | 09:49:33 | 28452 | 72659
    3 | 16:08:60 | 03:04:00 | 72660 | 86459
    4 | 19:12:60 | 01:52:37 | 86460 | 94896
    5 | 21:05:22 | 03:17:38 | 94897 | 109709
    6 | 24:22:60 | 07:05:00 | 109710 | 141584
    7 | 31:27:60 | 05:32:17 | 141585 | 166501


    Track 01
    Filename : /Users/cindycarrandi/Desktop/01 The Doors - Gloria.flac

    CRC32 hash (test run) : 53634CB6
    CRC32 hash : 53634CB6
    CRC32 hash (skip zero) : 07E21874
    AccurateRip signature : 4BF3A74A
    ->Accurately ripped! (confidence 8)
    Statistics
    Read error : 0
    Skipped (treated as error) : 0
    Edge jitter error (maybe fixed) : 0
    Atom jitter error (maybe fixed) : 0
    Drift error (maybe fixed) : 0
    Dropped bytes error (maybe fixed) : 0
    Duplicated bytes error (maybe fixed) : 0
    Inconsistency in error sectors : 0
  22. Eileen O

    Eileen O New Member

    There is quite a lot of confusion in this thread. XLD does not provide peak values. It also rips much faster than 5x, but ripping speed is drive dependent. The Matshita drives in current Macs are notoriously slow. This is not the fault of XLD.

    XLD does give Replay Gain values, should that option be chosen.
  23. shoegazer

    shoegazer New Member

    Location:
    nowhere
    My Rip includes Replay Gain levels and Peak Levels which match the rip I did of the same CD with EAC:


    EAC extraction logfile from 19. October 2008, 9:36


    Santana / Caravanserai


    Used drive : OPTIARC DVD RW AD-5630A Adapter: 0 ID: 0


    Read mode : Secure

    Utilize accurate stream : Yes

    Defeat audio cache : No

    Make use of C2 pointers : No


    Read offset correction : 48

    Overread into Lead-In and Lead-Out : No

    Fill up missing offset samples with silence : Yes

    Delete leading and trailing silent blocks : No

    Null samples used in CRC calculations : Yes

    Used interface : Installed external ASPI interface

    Gap handling : Not detected, thus appended to previous track

    Used output format : User Defined Encoder

    Selected bitrate : 128 kBit/s

    Quality : High

    Add ID3 tag : No

    Command line compressor : C:\Program Files\Exact Audio Copy\Flac\flac.exe

    Additional command line options : --best -T "ARTIST=%a" -T "TITLE=%t" -T "ALBUM=%g" -T "DATE=%y" -T "TRACKNUMBER=%n" -T "GENRE=%m" %s

    TOC of the extracted CD


    Track | Start | Length | Start sector | End sector

    ---------------------------------------------------------

    1 | 0:00.00 | 4:28.57 | 0 | 20156

    2 | 4:28.57 | 3:54.00 | 20157 | 37706

    3 | 8:22.57 | 3:00.05 | 37707 | 51211

    4 | 11:22.62 | 2:18.68 | 51212 | 61629

    5 | 13:41.55 | 6:04.00 | 61630 | 88929

    6 | 19:45.55 | 7:40.42 | 88930 | 123471

    7 | 27:26.22 | 4:12.38 | 123472 | 142409

    8 | 31:38.60 | 6:15.35 | 142410 | 170569

    9 | 37:54.20 | 4:34.45 | 170570 | 191164

    10 | 42:28.65 | 9:05.25 | 191165 | 232064




    Track 1



    Filename C:\Documents and Settings\james\Desktop\EAC\Rock\Santana\Caravanserai\01-Eternal Caravan Of Reincarnation.wav



    Peak level 61.5 %

    Track quality 100.0 %

    Copy CRC 259E8B58

    Accurately ripped (confidence 14) [9C8EFDF7]

    Copy OK
  24. Coldacre

    Coldacre Well-Known Member

    Location:
    Melbourne
    yeah great. but that was the EAC log file, not an XLD one

    can you post a XLD one?


    as far as I can tell, mine doesn't have the peak level:

    Augie March / Sunset Studies

    Used drive : MATSHITA DVD-R UJ-85J (revision FCQ5)

    Use cdparanoia mode : YES (CDParanoia III 10.2 engine)
    Disable audio cache : OK for the drive with cache less than 2750KB
    Make use of C2 pointers : NO
    Read offset correction : 102
    Max retry count : 100

    TOC of the extracted CD
    Track | Start | Length | Start sector | End sector
    ---------------------------------------------------------
    1 | 00:00:00 | 07:12:50 | 0 | 32449
    2 | 07:12:50 | 05:05:72 | 32450 | 55396
    3 | 12:18:47 | 03:17:23 | 55397 | 70194
    4 | 15:35:70 | 06:20:62 | 70195 | 98756
    5 | 21:56:57 | 04:42:33 | 98757 | 119939
    6 | 26:39:15 | 02:02:07 | 119940 | 129096
    7 | 28:41:22 | 05:34:12 | 129097 | 154158
    8 | 34:15:34 | 05:35:61 | 154159 | 179344
    9 | 39:51:20 | 05:12:30 | 179345 | 202774
    10 | 45:03:50 | 03:01:72 | 202775 | 216421
    11 | 48:05:47 | 04:56:62 | 216422 | 238683
    12 | 53:02:34 | 05:26:53 | 238684 | 263186
    13 | 58:29:12 | 04:50:23 | 263187 | 284959
    14 | 63:19:35 | 04:04:47 | 284960 | 303306
    15 | 67:24:07 | 08:46:33 | 303307 | 342789

    Track 01
    Filename : /Users/jamesbarclay/Desktop/01 Augie March - The Hole In Your Roof.aiff

    CRC32 hash (test run) : B3BAE3C6
    CRC32 hash : B3BAE3C6
    CRC32 hash (skip zero) : B4239F9D
    AccurateRip signature : 63841561
    ->Rip may not be accurate.
    Statistics
    Read error : 0
    Skipped (treated as error) : 0
    Edge jitter error (maybe fixed) : 0
    Atom jitter error (maybe fixed) : 0
    Drift error (maybe fixed) : 0
    Dropped bytes error (maybe fixed) : 0
    Duplicated bytes error (maybe fixed) : 0
    Inconsistency in error sectors : 0



    Track 02
    Filename : /Users/jamesbarclay/Desktop/02 Augie March - Maroondah Reservoir.aiff


    etc....


    why would it say 'rip may not accurate'? when there are no errors reported?
  25. vomitgod

    vomitgod New Member

    Location:
    Boston
    No peak levels here, either (ripped Squarepusher's new LP on 10.29 with the latest version of XLD). As I can think of no immediate use for them, what are folks here using peak levels for? To adjust replay, etc. gain?

    X Lossless Decoder version 20080926 (93.3)

    XLD extraction logfile from 2008-10-29 10:55:58 -0400

    Squarepusher / Just A Souvenir

    Used drive : HL-DT-ST DVDRW GSA-S10N (revision AP09)

    Use cdparanoia mode : YES (CDParanoia III 10.2 engine)
    Disable audio cache : OK for the drive with cache less than 2750KB
    Make use of C2 pointers : NO
    Read offset correction : 667
    Max retry count : 100

    TOC of the extracted CD
    Track | Start | Length | Start sector | End sector
    ---------------------------------------------------------
    1 | 00:00:00 | 05:02:00 | 0 | 22649
    2 | 05:02:00 | 04:03:22 | 22650 | 40896
    3 | 09:05:22 | 01:04:30 | 40897 | 45726
    4 | 10:09:52 | 03:03:61 | 45727 | 59512
    5 | 13:13:38 | 04:08:04 | 59513 | 78116
    6 | 17:21:42 | 01:37:72 | 78117 | 85463
    7 | 18:59:39 | 02:11:16 | 85464 | 95304
    8 | 21:10:55 | 04:02:33 | 95305 | 113487
    9 | 25:13:13 | 03:41:71 | 113488 | 130133
    10 | 28:55:09 | 07:10:16 | 130134 | 162399
    11 | 36:05:25 | 01:07:41 | 162400 | 167465
    12 | 37:12:66 | 02:27:00 | 167466 | 178490
    13 | 39:39:66 | 03:20:00 | 178491 | 193490
    14 | 42:59:66 | 01:27:30 | 193491 | 200045

    Track 01
    Filename : /Squarepusher - Just A Souvenir - 01 - Star Time 2.flac

    CRC32 hash (test run) : A6694828
    CRC32 hash : A6694828
    CRC32 hash (skip zero) : 80026E5D
    AccurateRip signature : E2307DC0
    ->Track not present in AccurateRip database.
    Statistics
    Read error : 0
    Skipped (treated as error) : 0
    Edge jitter error (maybe fixed) : 0
    Atom jitter error (maybe fixed) : 0
    Drift error (maybe fixed) : 0
    Dropped bytes error (maybe fixed) : 0
    Duplicated bytes error (maybe fixed) : 0
    Inconsistency in error sectors : 0

    Track 02
    Filename : /Squarepusher - Just A Souvenir - 02 - The Coathanger.flac

    CRC32 hash (test run) : 8EE59C3D
    CRC32 hash : 8EE59C3D
    CRC32 hash (skip zero) : 215E1ED4
    AccurateRip signature : 33355213
    ->Track not present in AccurateRip database.
    Statistics
    Read error : 0
    Skipped (treated as error) : 0
    Edge jitter error (maybe fixed) : 0
    Atom jitter error (maybe fixed) : 0
    Drift error (maybe fixed) : 0
    Dropped bytes error (maybe fixed) : 0
    Duplicated bytes error (maybe fixed) : 0
    Inconsistency in error sectors : 0

    Track 03
    Filename : /Squarepusher - Just A Souvenir - 03 - Open Society.flac

    CRC32 hash (test run) : DDC774AC
    CRC32 hash : DDC774AC
    CRC32 hash (skip zero) : CD4327C0
    AccurateRip signature : 09802E8A
    ->Track not present in AccurateRip database.
    Statistics
    Read error : 0
    Skipped (treated as error) : 0
    Edge jitter error (maybe fixed) : 0
    Atom jitter error (maybe fixed) : 0
    Drift error (maybe fixed) : 0
    Dropped bytes error (maybe fixed) : 0
    Duplicated bytes error (maybe fixed) : 0
    Inconsistency in error sectors : 0

    Track 04
    Filename : /Squarepusher - Just A Souvenir - 04 - A Real Woman.flac

    CRC32 hash (test run) : 194B3547
    CRC32 hash : 194B3547
    CRC32 hash (skip zero) : F29F2FAD
    AccurateRip signature : 2669135C
    ->Track not present in AccurateRip database.
    Statistics
    Read error : 0
    Skipped (treated as error) : 0
    Edge jitter error (maybe fixed) : 0
    Atom jitter error (maybe fixed) : 0
    Drift error (maybe fixed) : 0
    Dropped bytes error (maybe fixed) : 0
    Duplicated bytes error (maybe fixed) : 0
    Inconsistency in error sectors : 0

    Track 05
    Filename : /Squarepusher - Just A Souvenir - 05 - Delta-V.flac

    CRC32 hash (test run) : 6A0755A9
    CRC32 hash : 6A0755A9
    CRC32 hash (skip zero) : 292542BA
    AccurateRip signature : DF7164BB
    ->Track not present in AccurateRip database.
    Statistics
    Read error : 0
    Skipped (treated as error) : 0
    Edge jitter error (maybe fixed) : 0
    Atom jitter error (maybe fixed) : 0
    Drift error (maybe fixed) : 0
    Dropped bytes error (maybe fixed) : 0
    Duplicated bytes error (maybe fixed) : 0
    Inconsistency in error sectors : 0

    Track 06
    Filename : /Squarepusher - Just A Souvenir - 06 - Aqueduct.flac

    CRC32 hash (test run) : 2C876ACF
    CRC32 hash : 2C876ACF
    CRC32 hash (skip zero) : A021C191
    AccurateRip signature : 127F50C4
    ->Track not present in AccurateRip database.
    Statistics
    Read error : 0
    Skipped (treated as error) : 0
    Edge jitter error (maybe fixed) : 0
    Atom jitter error (maybe fixed) : 0
    Drift error (maybe fixed) : 0
    Dropped bytes error (maybe fixed) : 0
    Duplicated bytes error (maybe fixed) : 0
    Inconsistency in error sectors : 0

    Track 07
    Filename : /Squarepusher - Just A Souvenir - 07 - Potential Govaner.flac

    CRC32 hash (test run) : 034E1CC8
    CRC32 hash : 034E1CC8
    CRC32 hash (skip zero) : 3A3FD4D7
    AccurateRip signature : 70644004
    ->Track not present in AccurateRip database.
    Statistics
    Read error : 0
    Skipped (treated as error) : 0
    Edge jitter error (maybe fixed) : 0
    Atom jitter error (maybe fixed) : 0
    Drift error (maybe fixed) : 0
    Dropped bytes error (maybe fixed) : 0
    Duplicated bytes error (maybe fixed) : 0
    Inconsistency in error sectors : 0

    Track 08
    Filename : /Squarepusher - Just A Souvenir - 08 - Planet Gear.flac

    CRC32 hash (test run) : BEDF45E5
    CRC32 hash : BEDF45E5
    CRC32 hash (skip zero) : 681A1A86
    AccurateRip signature : C1DF32B8
    ->Track not present in AccurateRip database.
    Statistics
    Read error : 0
    Skipped (treated as error) : 0
    Edge jitter error (maybe fixed) : 0
    Atom jitter error (maybe fixed) : 0
    Drift error (maybe fixed) : 0
    Dropped bytes error (maybe fixed) : 0
    Duplicated bytes error (maybe fixed) : 0
    Inconsistency in error sectors : 0

    Track 09
    Filename : /Squarepusher - Just A Souvenir - 09 - Tensor In Green.flac

    CRC32 hash (test run) : D213D1EC
    CRC32 hash : D213D1EC
    CRC32 hash (skip zero) : 89533D51
    AccurateRip signature : C28DAB02
    ->Track not present in AccurateRip database.
    Statistics
    Read error : 0
    Skipped (treated as error) : 0
    Edge jitter error (maybe fixed) : 0
    Atom jitter error (maybe fixed) : 0
    Drift error (maybe fixed) : 0
    Dropped bytes error (maybe fixed) : 0
    Duplicated bytes error (maybe fixed) : 0
    Inconsistency in error sectors : 0

    Track 10
    Filename : /Squarepusher - Just A Souvenir - 10 - The Glass Road.flac

    CRC32 hash (test run) : F309D7EE
    CRC32 hash : F309D7EE
    CRC32 hash (skip zero) : 3158A95C
    AccurateRip signature : 030A2D1B
    ->Track not present in AccurateRip database.
    Statistics
    Read error : 0
    Skipped (treated as error) : 0
    Edge jitter error (maybe fixed) : 0
    Atom jitter error (maybe fixed) : 0
    Drift error (maybe fixed) : 0
    Dropped bytes error (maybe fixed) : 0
    Duplicated bytes error (maybe fixed) : 0
    Inconsistency in error sectors : 0

    Track 11
    Filename : /Squarepusher - Just A Souvenir - 11 - Fluxgate.flac

    CRC32 hash (test run) : 7A5A2A35
    CRC32 hash : 7A5A2A35
    CRC32 hash (skip zero) : 1F250882
    AccurateRip signature : 024F966C
    ->Track not present in AccurateRip database.
    Statistics
    Read error : 0
    Skipped (treated as error) : 0
    Edge jitter error (maybe fixed) : 0
    Atom jitter error (maybe fixed) : 0
    Drift error (maybe fixed) : 0
    Dropped bytes error (maybe fixed) : 0
    Duplicated bytes error (maybe fixed) : 0
    Inconsistency in error sectors : 0

    Track 12
    Filename : /Squarepusher - Just A Souvenir - 12 - Duotone Moonbeam.flac

    CRC32 hash (test run) : 8B2DE87C
    CRC32 hash : 8B2DE87C
    CRC32 hash (skip zero) : F981D13B
    AccurateRip signature : 9B43E826
    ->Track not present in AccurateRip database.
    Statistics
    Read error : 0
    Skipped (treated as error) : 0
    Edge jitter error (maybe fixed) : 0
    Atom jitter error (maybe fixed) : 0
    Drift error (maybe fixed) : 0
    Dropped bytes error (maybe fixed) : 0
    Duplicated bytes error (maybe fixed) : 0
    Inconsistency in error sectors : 0

    Track 13
    Filename : /Squarepusher - Just A Souvenir - 13 - Quadrature.flac

    CRC32 hash (test run) : 0FD59528
    CRC32 hash : 0FD59528
    CRC32 hash (skip zero) : E7A0E787
    AccurateRip signature : CF03A379
    ->Track not present in AccurateRip database.
    Statistics
    Read error : 0
    Skipped (treated as error) : 0
    Edge jitter error (maybe fixed) : 0
    Atom jitter error (maybe fixed) : 0
    Drift error (maybe fixed) : 0
    Dropped bytes error (maybe fixed) : 0
    Duplicated bytes error (maybe fixed) : 0
    Inconsistency in error sectors : 0

    Track 14
    Filename : /Squarepusher - Just A Souvenir - 14 - Yes Sequitur.flac

    CRC32 hash (test run) : 80F304E2
    CRC32 hash : 80F304E2
    CRC32 hash (skip zero) : 1853223D
    AccurateRip signature : 4835E28B
    ->Track not present in AccurateRip database.
    Statistics
    Read error : 0
    Skipped (treated as error) : 0
    Edge jitter error (maybe fixed) : 0
    Atom jitter error (maybe fixed) : 0
    Drift error (maybe fixed) : 0
    Dropped bytes error (maybe fixed) : 0
    Duplicated bytes error (maybe fixed) : 0
    Inconsistency in error sectors : 0

    No errors occurred

    End of status report

Users Viewing Thread (Users: 0, Guests: 0)