Some STREET TALK With Steve Perry POLL:

Discussion in 'Music Corner' started by Psychedelic Good Trip, Feb 7, 2017.

  1. Duke Fame

    Duke Fame Forum Resident

    Location:
    Tampa, FL
    I had kinda forgotten about this one. I should keep an eye out for it in the used bins.
     
    Psychedelic Good Trip likes this.
  2. telecode101

    telecode101 Forum Resident

    Location:
    Toronto, Canada
    I never liked Journey.. but Perry was (maybe still is) one hell of an amazing vocalist.
     
    Psychedelic Good Trip likes this.
  3. gitters

    gitters Forum Resident

    I chose all 10 songs on the original 1984 release, love it! Favorites are; Oh Sherrie, Foolish Heart, Go Away, and Strung Out, but again I love the whole album!
     
  4. BradOlson

    BradOlson Country/Christian Music Maven

    The non-remastered issue is the better sounding disc.
     
  5. WiWavelength

    WiWavelength Well-Known Member

    Location:
    United States
    For "Street Talk," what is the mastering situation among 35DP, CSR Japan for US, and early DADC? I have an early DADC DIDP 20097 on the way. I also can pick up a CSR Japan for US DIDP 20097 if need be. Is the CSR Japan for US the same mastering as the 35DP?

    Thanks...

    AJ
     
    Psychedelic Good Trip likes this.
  6. WiWavelength

    WiWavelength Well-Known Member

    Location:
    United States
    To add to my own question above, does more than one CSR Japan for US pressing/mastering exist? Is there a CSR Japan for US DIDP 50148 with 35DP matrix "Street Talk," too?

    AJ
     
    Psychedelic Good Trip likes this.
  7. Psychedelic Good Trip

    Psychedelic Good Trip Forum Resident Thread Starter

    Location:
    New York
    Gald this thread is getting a little love here on Hoffman.

    :winkgrin:
     
    OptimisticGoat and c-eling like this.
  8. mdm08033

    mdm08033 Forum Resident

    I just acquired a DADC copy with a smooth sided case. According to my searches, there only one mastering.

    I’m looking forward to playing this for my Journey loving kids in my avatar.
     
  9. Psychedelic Good Trip

    Psychedelic Good Trip Forum Resident Thread Starter

    Location:
    New York


    Enjoy. Love this album.
     
  10. Talisman954

    Talisman954 Forum Resident

    Location:
    Dallas
    I stand alone has a truly amazing vocal.
    Since that was 1998 I think it’s the last thing he recorded.
    Even if you hate the song, his vocal is outstanding.


     
  11. Talisman954

    Talisman954 Forum Resident

    Location:
    Dallas
    Missing You. & I Am & FTLOSM & You Better Wait.
    Loved those songs . I still play them all the time.
    I would have kicked off Donna Please and replaced it with Home At Last.
    I still don’t know why that song didn’t get a release.
    Also another demo with Tony Brock called Congratulations.
    Superb songs.
     
    Psychedelic Good Trip likes this.
  12. bvb1123

    bvb1123 Rock and Roll Martian

    Location:
    Cincinnati Ohio
    My two favorites from this album are
    "Strung Out" &
    "Captured By The Moment"
    Two of the best songs of the 80s as far as I'm concerned.
     
  13. Talisman954

    Talisman954 Forum Resident

    Location:
    Dallas
    Captured and Go Away for me
     
  14. Psychedelic Good Trip

    Psychedelic Good Trip Forum Resident Thread Starter

    Location:
    New York
    Great tune. A Timeless sound and rhythm.


     
    John Adam and c-eling like this.
  15. sa5150

    sa5150 Well-Known Member

    there a few different original cds of street talk , are the all the same mastering ? one to get over the other ? I ditched my remasters just recently. Now I want to buy originals that I ditched when the remasters came out LOL. what a cycle .....
     
    Psychedelic Good Trip likes this.
  16. c-eling

    c-eling Forum Resident

    Levels for my Japan for US CSR Compact Disc x3 21A3 +++++
    DR13 -0.57 dB -15.71 dB 3:49 01-Oh Sherrie
    DR12 -0.32 dB -15.69 dB 4:12 02-I Believe
    DR12 -3.67 dB -17.24 dB 4:07 03-Go Away
    DR12 -4.73 dB -19.20 dB 3:40 04-Foolish Heart
    DR12 -1.67 dB -16.21 dB 3:52 05-It's Only Love
    DR14 0.00 dB -16.63 dB 4:27 06-She's Mine
    DR13 -1.21 dB -17.32 dB 3:24 07-You Should Be Happy
    DR13 -2.36 dB -18.93 dB 4:07 08-Running Alone
    DR13 -0.35 dB -17.24 dB 3:49 09-Captured By The Moment
    DR13 -0.94 dB -16.59 dB 3:53 10-Strung Out
    --------------------------------------------------------------------------------
     
    sa5150 and Psychedelic Good Trip like this.
  17. Psychedelic Good Trip

    Psychedelic Good Trip Forum Resident Thread Starter

    Location:
    New York

    Thanks for the bump. I'll crank Street Talk up sometime tomorrow.
     
    sa5150 likes this.
  18. sa5150

    sa5150 Well-Known Member

    Is the dadc the same ? I tried for a japan for japan and lost out on ebay now they just sell too much . I like the back picture better on those early japan cds but not worth the extra money unless they have some kinda different mastering . :)
     
  19. c-eling

    c-eling Forum Resident

    No clue. but @steeler1979 has a 35DP maybe he can shed some light or post a DR of his copy, his thread stated a difference between that and the US manufacture
     
    sa5150 and Psychedelic Good Trip like this.
  20. WiWavelength

    WiWavelength Well-Known Member

    Location:
    United States
    Not long after my earlier posts in this thread, I ended up with both early DADC and CSR Japan for US pressings. And the mastering/levels are the same for both.

    Code:
    Analyzed: Steve Perry / Street Talk [CK 39334; DADC]
    --------------------------------------------------------------------------------
    
    DR         Peak         RMS     Duration Track
    --------------------------------------------------------------------------------
    DR13      -0.57 dB   -15.71 dB      3:49 01-Oh Sherrie
    DR12      -0.32 dB   -15.69 dB      4:12 02-I Believe
    DR12      -3.67 dB   -17.24 dB      4:07 03-Go Away
    DR12      -4.73 dB   -19.20 dB      3:40 04-Foolish Heart
    DR12      -1.67 dB   -16.21 dB      3:52 05-It's Only Love
    DR14       0.00 dB   -16.64 dB      4:27 06-She's Mine
    DR13      -1.21 dB   -17.32 dB      3:24 07-You Should Be Happy
    DR13      -2.36 dB   -18.93 dB      4:07 08-Running Alone
    DR13      -0.35 dB   -17.24 dB      3:49 09-Captured By The Moment
    DR13      -0.94 dB   -16.59 dB      3:53 10-Strung Out
    Code:
    Track Peak [ CRC32  ] [W/O NULL]
     --  100.0 [03847360] [38E4F8AD]           
     01   93.6 [66701805] [1FEE1BBA]           
     02   96.3 [B8974700] [35C3FA38]           
     03   65.5 [556E0095] [785C2635]           
     04   58.0 [8558C5C7] [ADAC4EBB]           
     05   82.5 [9A4758CD] [7016DA5E]           
     06  100.0 [6F632FE9] [62DAFAD7]           
     07   87.0 [4272F6E0] [45E73B30]           
     08   76.1 [BF0CE541] [F55FD3C7]           
     09   96.0 [A902E51F] [B6CDBEA3]           
     10   89.7 [B2CC3B4D] [EBF1E718]
    This is one instance in which I think steeler1979 is mistaken or misconstrued. The 35DP 148 is higher in catalog number and later in years (1984), so pre-emphasis is less likely. And absent pre-emphasis, a 35DP that would have a different mastering from both CSR Japan for US and DADC would be rare, if not unprecedented.

    AJ
     
  21. steeler1979

    steeler1979 Forum Resident

    Location:
    Nashville,Tn. USA
    Hey gang I'll post my 35DP Japan for Japan stuff tomorrow, I'll be out of town until then. I seem to remember there being pre echo in my 35DP (like vinyl) and don't remember it on the DADC, but it's been awhile since I analyzed it. We will know tomorrow!
     
  22. steeler1979

    steeler1979 Forum Resident

    Location:
    Nashville,Tn. USA
    Also on a side note I am good friends with Bill Cuomo, co- writer of OH SHERRIE (also good friends with Craig Krampf ) and recently was over at Bill's house and he played for me a demo of OH SHERRIE that was just Bill, Steve and Craig (lyrics were nowhere near finished) and it was amazing! I was honored to hear it in it's primitive state.
     
  23. Psychedelic Good Trip

    Psychedelic Good Trip Forum Resident Thread Starter

    Location:
    New York


    WOW!! Seriously WOW!!
     
    steeler1979 likes this.
  24. mdm08033

    mdm08033 Forum Resident

    Oh Sherri. Wow, talk about a song that has paid some bills.
     
  25. steeler1979

    steeler1979 Forum Resident

    Location:
    Nashville,Tn. USA
    Alright the EAC for the Japan for Japan 35DP-148 is:

    1. 83.2
    2. 85.6
    3. 59.6
    4. 52.8
    5. 75.1
    6. 93.6
    7. 79.1
    8. 69.3
    9. 87.3
    10. 81.6

    As I remembered there IS pre-echo throughout (most noticeable when using headphones). Hope this helps
     

Share This Page