The Corrs new album "Jupiter Calling" produced by T Bone Burnett (November 10, 2017)

Discussion in 'Music Corner' started by pghmusiclover, Sep 13, 2017.

  1. pghmusiclover

    pghmusiclover Forum Resident Thread Starter

  2. pghmusiclover

    pghmusiclover Forum Resident Thread Starter

    [​IMG]

    1. Son of Solomon
    2. Chasing Shadows
    3. Bulletproof Love
    4. Road To Eden
    5. Butter Flutter
    6. SOS
    7. Dear Life
    8. No Go Baby
    9. Hit My Ground Running
    10. Live Before I Die
    11. Season Of Our Love
    12. A Love Divine
    13. The Sun And The Moon
     
  3. walrus

    walrus Forum Resident

    Location:
    Nashville, TN
    Oh wow. That was a fast turnaround from White Light...and T-Bone producing? I'm in.
     
    pghmusiclover likes this.
  4. micksmuse

    micksmuse Forum Resident

    Location:
    san diego
    couldn't be happier (unless they would come back to san diego for a show).
     
  5. Bobby Morrow

    Bobby Morrow Forum Resident

    My favourite Corrs album is In Blue. Talk On Corners was huge here and massively overplayed.

    White Light was so-s0. Don't think I'll bother with this one.
     
  6. pghmusiclover

    pghmusiclover Forum Resident Thread Starter

  7. Pizza

    Pizza Forum Resident

    Location:
    USA
    I got all their albums. Talk On Corners is brilliant. One of my favorite albums.
     
  8. Jimmy Agates

    Jimmy Agates Forum Resident

    A pretty low key opener but I like it. Seem to be heading back towards what made them great in the first place. Less pop in better words!
     
    amoergosum likes this.
  9. pbody

    pbody New Member

    Location:
    Newark, DE USA
    Love the Corrs. This is a bit of a 'throwback' is style...and I like it.
     
  10. Lucidae

    Lucidae Forum Resident

    Location:
    Australia
    The "unplugged" album is my favorite, just goes to show how talented the band is without all the studio polish.
     
  11. dajokr

    dajokr Forum Resident

    Location:
    Yokosuka, Japan
    Awesome band. If only they weren't so ugly. :drool::D
     
    driverdrummer and LivingForever like this.
  12. BlueTrane

    BlueTrane Forum Resident

    I have to say, fairly or not, this alone has me far more interested than before.
     
  13. walrus

    walrus Forum Resident

    Location:
    Nashville, TN
    It's totally fair. It definitely implies they're going to make something different than White Light.
     
  14. pghmusiclover

    pghmusiclover Forum Resident Thread Starter

  15. Jimmy Agates

    Jimmy Agates Forum Resident

    Got this and to be honest I'm not that impressed. Very very slow paced...it takes til track 9 before they even get out of first gear. The beauty of the band early on was the combination of celtic influences blended with pop but this just seems to be bogged down in ballads...where are the uplifing songs that made them so great?
     
  16. amoergosum

    amoergosum Forum Resident

    Location:
    Germany
    The Corrs - Jupiter Calling
    ----------------------------------------------------------------------------------------------
    DR Peak RMS Filename
    ----------------------------------------------------------------------------------------------

    DR6 -0.03 dB -10.07 dB 01 - Son of Solomon.mp3
    DR7 over -8.23 dB 02 - Chasing Shadows.mp3
    DR7 over -9.82 dB 03 - Bulletproof Love.mp3
    DR8 -0.01 dB -10.51 dB 04 - Road to Eden.mp3
    DR8 over -10.36 dB 05 - Butter Flutter.mp3
    DR7 -0.05 dB -8.42 dB 06 - SOS.mp3
    DR7 -0.16 dB -9.38 dB 07 - Dear Life.mp3
    DR12 -1.36 dB -16.27 dB 08 - No Go Baby.mp3
    DR7 over -8.93 dB 09 - Hit My Ground Running.mp3
    DR8 -0.05 dB -10.76 dB 10 - Live Before I Die.mp3
    DR7 over -7.97 dB 11 - Season of Our Love.mp3
    DR7 over -8.23 dB 12 - A Love Divine.mp3
    DR8 -0.08 dB -10.58 dB 13 - The Sun and the Moon.mp3
    ----------------------------------------------------------------------------------------------

    Number of files: 13
    Official DR value: DR7
     
  17. The prettiest band ever! :)
     
    Galley and driverdrummer like this.
  18. pghmusiclover

    pghmusiclover Forum Resident Thread Starter

    I really like this -- even if it's not quite as "pop" as their big albums (which I loved).
     

Share This Page