Tom Petty The Live Anthology: Ultimate Collector's Edition Boxed Set (5 CDs + 1 Blu-ray + 2 DVDs + 1

Discussion in 'Music Corner' started by Zafu, Oct 5, 2013.

  1. Matthew Tate

    Matthew Tate Forum Resident

    Location:
    Richmond, Virginia

    which one is the deluxe version?
     
  2. Malina

    Malina Forum Resident

    Location:
    NYC
    It also comes with a folder with a booklet with a history and full credits. The bonus disc is 9 tracks with songs from the shows Fridays, Top Of The Pops, Old Grey Whistle Test and some other things. There is also a pamphlet selling a few things like the coffee table book and 4 prints that you can find in Ebay auctions. These sets were overstock and were being blown out for 8 bucks back in late 2013 and for awhile after. In any event, this is streaming on Netflix for anyone who wants to see it, it's a great doc!

    [​IMG]


    petty dream in DVDs and Movies | eBay
     
    Last edited: Oct 7, 2017
    Matthew Tate likes this.
  3. Matthew Tate

    Matthew Tate Forum Resident

    Location:
    Richmond, Virginia


    oh good. thats the one I have
     
    Malina likes this.
  4. bbanderic

    bbanderic Forum Resident

    Nice added bonus to this set is the audio on the Santa Monica DVD, sounds absolutely fantastic and only has one common track to the main set (Too Much Ain't Enough), makes a nice companion piece to the stellar BD audio.

    foobar2000 1.3.7 / Dynamic Range Meter 1.1.1
    log date: 2017-10-09 19:50:29

    --------------------------------------------------------------------------------
    Analyzed: Tom Petty & The Heartbreakers / Live From Santa Monica 1978.12.31
    --------------------------------------------------------------------------------

    DR Peak RMS Duration Track
    --------------------------------------------------------------------------------
    DR12 -8.59 dB -26.85 dB 1:11 ?-01 Introduction (December 31, 1978)
    DR12 -0.09 dB -14.46 dB 2:22 ?-02 I Need To Know (December 31, 1978)
    DR14 -0.10 dB -14.89 dB 2:52 ?-03 Surrender (December 31, 1978)
    DR13 -0.11 dB -15.97 dB 6:44 ?-04 Fooled Again (I Don't Like It) (December 31, 1978)
    DR14 -0.10 dB -17.69 dB 5:22 ?-05 Casa Dega (December 31, 1978)
    DR13 -0.10 dB -14.79 dB 3:46 ?-06 Refugee (December 31, 1978)
    DR14 -0.12 dB -15.73 dB 4:19 ?-07 You're Gonna Get It (December 31, 1978)
    DR13 -0.98 dB -17.14 dB 3:18 ?-08 Mystery Man (December 31, 1978)
    DR13 -0.11 dB -14.98 dB 4:22 ?-09 American Girl (December 31, 1978)
    DR14 -1.17 dB -19.38 dB 7:12 ?-10 Breakdown (December 31, 1978)
    DR13 -0.09 dB -14.80 dB 4:54 ?-11 Too Much Ain't Enough (December 31, 1978)
    DR13 -0.24 dB -18.06 dB 1:39 ?-12 Countdown (December 31, 1978)
    DR13 -0.03 dB -16.23 dB 8:58 ?-13 Shout (December 31, 1978)
    --------------------------------------------------------------------------------

    Number of tracks: 13
    Official DR value: DR13

    Samplerate: 48000 Hz
    Channels: 2
    Bits per sample: 16
    Bitrate: 1536 kbps
    Codec: PCM
    ================================================================================
     
  5. melstapler

    melstapler Reissue Activist

    Before Hastings closed and a while after Best Buy stopped selling this title, I found quantities of sealed copies of the deluxe "Runnin' Down A Dream" DVD set for around $10 a piece. Kept 1 copy and gave the others away as gifts. Somehow, Hastings must've acquired Best Buy's unsold copies of the deluxe edition, although I do recall finding items which were exclusive to Target and Toys R Us being sold at Hastings.
     
    Matthew Tate and Malina like this.
  6. Malina

    Malina Forum Resident

    Location:
    NYC
    I don't know how this works, but apparently Best Buy decided to dump their stock and made them available to other retailers because there were a bunch of sellers blowing them out on Amazon. I paid 8.36 + 3.99 on September 10, 2013 and they were plentiful back then.
     
    Matthew Tate and melstapler like this.
  7. KariK

    KariK Forum Resident

    Location:
    Espoo, Finland
  8. WarEagleRK

    WarEagleRK Forum Resident

    Location:
    Chattanooga, TN
    KariK and MYKE like this.
  9. KariK

    KariK Forum Resident

    Location:
    Espoo, Finland
    But no difference in actual content?
     
  10. WarEagleRK

    WarEagleRK Forum Resident

    Location:
    Chattanooga, TN
    Didn't notice anything. However that was just comparing the two descriptions.
     

Share This Page