Crosby Stills & Nash on CD or Hi-rez

Discussion in 'Music Corner' started by Turnaround, Oct 12, 2004.

Thread Status:
Not open for further replies.
  1. KeithH

    KeithH Success With Honor...then and now

    Location:
    Beaver Stadium
    Target discs are any of the WEA discs with the bullseye design (arrangement of squares into the bullseye, gunsight, or target). The ones with the colored labels are often the most desirable from an aesthetic standpoint. A number of targets were released with no color coating.

    Ah, a Sox fan. Pedro vs. His "Daddy". ;)
     
  2. Michael

    Michael I LOVE WIDE S-T-E-R-E-O!

    I missed the real deal too...:rolleyes:...my burned copy skips.
     
  3. reidc

    reidc Forum Resident

    Location:
    Fitchburg, Mass
    I EAC'd both of my Allies copies, and while the made in Germany version hits 100% often- The Japanese is normally 2 or 3% behind it

    Lets see if I can attach

    EAC extraction logfile from 13. October 2004, 20:48 for CD
    Crosby, Stills & Nash / Allies

    Used drive : LITE-ON DVDRW LDW-851S Adapter: 1 ID: 0
    Read mode : Secure with C2, accurate stream, disable cache
    Read offset correction : 0
    Overread into Lead-In and Lead-Out : No

    Used output format : Internal WAV Routines
    44.100 Hz; 16 Bit; Stereo

    Other options :
    Fill up missing offset samples with silence : Yes
    Delete leading and trailing silent blocks : No
    Installed external ASPI interface


    Track 1
    Filename C:\EAC\War Games.wav

    Peak level 90.5 %
    Track quality 100.0 %
    Test CRC CB1DAA89
    Copy OK

    Track 2
    Filename C:\EAC\Raise A Voice.wav

    Peak level 100.0 %
    Track quality 100.0 %
    Test CRC D1E69555
    Copy OK

    Track 3
    Filename C:\EAC\Turn Your Back On Love.wav

    Peak level 100.0 %
    Track quality 100.0 %
    Test CRC 62BF8874
    Copy OK

    Track 4
    Filename C:\EAC\Barrel Of Pain.wav

    Peak level 96.0 %
    Track quality 100.0 %
    Test CRC FA3737C4
    Copy OK

    Track 5
    Filename C:\EAC\Shadow Captain.wav

    Peak level 92.0 %
    Track quality 100.0 %
    Test CRC F7E54F0F
    Copy OK

    Track 6
    Filename C:\EAC\Dark Star.wav

    Peak level 81.1 %
    Track quality 100.0 %
    Test CRC 280C6DFB
    Copy OK

    Track 7
    Filename C:\EAC\Blackbrid.wav

    Peak level 39.7 %
    Track quality 100.0 %
    Test CRC DCEDE0B5
    Copy OK

    Track 8
    Filename C:\EAC\He Played Real Good For Free.wav

    Peak level 44.7 %
    Track quality 100.0 %
    Test CRC EB2A2E84
    Copy OK

    Track 9
    Filename C:\EAC\Wasted On The Way.wav

    Peak level 70.1 %
    Track quality 100.0 %
    Test CRC E19C3C9F
    Copy OK

    Track 10
    Filename C:\EAC\For What It's Worth.wav

    Peak level 100.0 %
    Track quality 100.0 %
    Test CRC 64F79FCF
    Copy OK

    No errors occured


    End of status report
     
  4. reidc

    reidc Forum Resident

    Location:
    Fitchburg, Mass
    OK- now for the Japanese version:

    EAC extraction logfile from 13. October 2004, 20:29 for CD
    Crosby, Stills & Nash / Allies

    Used drive : LITE-ON DVDRW LDW-851S Adapter: 1 ID: 0
    Read mode : Secure with C2, accurate stream, disable cache
    Read offset correction : 0
    Overread into Lead-In and Lead-Out : No

    Used output format : Internal WAV Routines
    44.100 Hz; 16 Bit; Stereo

    Other options :
    Fill up missing offset samples with silence : Yes
    Delete leading and trailing silent blocks : No
    Installed external ASPI interface


    Track 1
    Filename C:\EAC\War Games.wav

    Peak level 88.4 %
    Track quality 100.0 %
    Test CRC 67AD492C
    Copy OK

    Track 2
    Filename C:\EAC\Raise A Voice.wav

    Peak level 97.7 %
    Track quality 100.0 %
    Test CRC 7B39229A
    Copy OK

    Track 3
    Filename C:\EAC\Turn Your Back On Love.wav

    Peak level 97.7 %
    Track quality 100.0 %
    Test CRC EA0BAA25
    Copy OK

    Track 4
    Filename C:\EAC\Barrel Of Pain.wav

    Peak level 93.8 %
    Track quality 100.0 %
    Test CRC BC06B497
    Copy OK

    Track 5
    Filename C:\EAC\Shadow Captain.wav

    Peak level 89.9 %
    Track quality 100.0 %
    Test CRC E79A4089
    Copy OK

    Track 6
    Filename C:\EAC\Dark Star.wav

    Peak level 79.2 %
    Track quality 100.0 %
    Test CRC 989F457F
    Copy OK

    Track 7
    Filename C:\EAC\Blackbrid.wav

    Peak level 38.8 %
    Track quality 100.0 %
    Test CRC 85AA0125
    Copy OK

    Track 8
    Filename C:\EAC\He Played Real Good For Free.wav

    Peak level 43.7 %
    Track quality 100.0 %
    Test CRC 459BA296
    Copy OK

    Track 9
    Filename C:\EAC\Wasted On The Way.wav

    Peak level 68.5 %
    Track quality 100.0 %
    Test CRC F02BB111
    Copy OK

    Track 10
    Filename C:\EAC\For What It's Worth.wav

    Peak level 97.7 %
    Track quality 100.0 %
    Test CRC AF76262F
    Copy OK

    No errors occured


    End of status report
     
  5. reidc

    reidc Forum Resident

    Location:
    Fitchburg, Mass
    Someone here has a needle drop of the MFSL vinyl- I'd love to check that out!!!
     
Thread Status:
Not open for further replies.

Share This Page