Dynamic Range - Let's Create our Own Reference Library

Discussion in 'Music Corner' started by hodgo, Apr 30, 2018.

  1. hodgo

    hodgo Tea Making Gort (Yorkshire Branch) Staff Thread Starter

    Location:
    East Yorkshire
    Look, right now this is the only option we've got, so rather than pointing out the downsides can we please just get back to listing Dynamic Range values as set out in the opening post of this thread.
     
  2. Crawdad

    Crawdad Detroit Rock Citizen

    I would just rather like to post the link to discogs rather than copying all the information from it that way if someone wants to purchase the CD or whatever they can if it's available. Just my two cents
     
  3. hodgo

    hodgo Tea Making Gort (Yorkshire Branch) Staff Thread Starter

    Location:
    East Yorkshire
    No! in order to make this thread easily searchable we need all of the following information......

    Artist Name - Album Name

    Record Label

    UPC/EAN Code

    Year of Release

    Disc number (Where applicable)

    Average DR - Minimum DR - Maximum DR

    The DR Log file
     
  4. InStepWithTheStars

    InStepWithTheStars It's a miracle, let it alter you

    Location:
    North Carolina
    Here's logs for all of my Animals CDs that aren't already in the DR database. All of these are straight, un-altered WAV rips of the CD (I removed the ".wav" indicator on all of my DR logs because I didn't like the way it looked, and I'm too lazy to add it back). The information is all here to be searchable (and also matches exactly what's on the packaging!), but I've also included Discogs links for convenience.

    Artist: The Animals
    Album: Inside-Looking Out "The 1965-1966 Sessions"
    Label: Sequel Records
    Catalog Number: NEX CD 153
    UPC: 5017285512536
    Year: 1990
    Discogs Link: The Animals – Inside Looking Out "The 1965-1966 Sessions" (1991, CD)

    ----------------------------------------------------------------------------------------------
    The Animals | Inside Looking Out "The 1965-1966 Sessions" | 1990 | Sequel Records | NEX CD 153 | 5017285512536 | S NEXCD 153 02
    ----------------------------------------------------------------------------------------------
    DR Peak RMS Filename
    ----------------------------------------------------------------------------------------------

    DR8 -1.45 dB -10.83 dB 01 Inside Looking Out
    DR8 -1.75 dB -10.75 dB 02 Outcast
    DR9 -0.14 dB -11.68 dB 03 Don't Bring Me Down
    DR9 -0.25 dB -10.69 dB 04 Cheating
    DR9 -0.33 dB -11.59 dB 05 Help Me Girl
    DR10 -0.27 dB -11.34 dB 06 See See Rider
    DR9 -1.08 dB -11.37 dB 07 One Monkey Don't Stop No Show
    DR8 -0.50 dB -10.27 dB 08 Maudie
    DR8 -0.67 dB -9.58 dB 09 Sweet Little Sixteen
    DR9 -0.44 dB -10.99 dB 10 You're On My Mind
    DR16 -1.54 dB -20.61 dB 11 Clapping
    DR9 -0.98 dB -12.43 dB 12 Gin House Blues
    DR9 -0.72 dB -11.17 dB 13 Squeeze Her, Tease Her
    DR9 -1.36 dB -11.95 dB 14 What Am I Living For?
    DR8 -0.89 dB -10.30 dB 15 I Put A Spell On You
    DR8 -0.95 dB -10.11 dB 16 That's All I Am To You
    DR9 -0.74 dB -11.22 dB 17 She'll Return It
    DR10 -0.81 dB -13.81 dB 18 Mama Told Me Not To Come
    DR9 -1.24 dB -13.73 dB 19 I Just Wanna Make Love To You
    DR9 -0.45 dB -10.67 dB 20 Boom Boom
    DR10 -1.29 dB -11.96 dB 21 Big Boss Man
    DR10 -1.04 dB -12.17 dB 22 Pretty Thing
    ----------------------------------------------------------------------------------------------

    Number of files: 22
    Official DR value: DR9

    ==============================================================================================

    Artist: The Animals
    Album: Don't Bring Me Down • The Decca Years
    Label: Castle Music/Sanctuary Music Group
    Catalog Number: CMRCD 766
    UPC: 5050159176625
    Year: 2003
    Discogs Link: The Animals – Don't Bring Me Down - The Decca Years (2003, CD)
    Quick comment – the packaging of this CD is incredibly beautiful, but the sound quality is among the worst I've ever heard. Don't buy if you intend to put the CD into a player.

    ----------------------------------------------------------------------------------------------
    The Animals | Don't Bring Me Down • The DECCA Years | 2003 | Sanctuary Records Group Ltd. | CMRCD 766 | 5050159176625 | IFPI 5Q15 IFPI LD13 CMRCD766 SANCTUARY RECORDS *43747 www.vdcgroup.com
    ----------------------------------------------------------------------------------------------
    DR Peak RMS Filename
    ----------------------------------------------------------------------------------------------

    DR6 -0.18 dB -7.62 dB 01 The Animals | Inside-Looking Out
    DR7 -0.18 dB -8.33 dB 02 The Animals | Outcast
    DR6 -0.18 dB -7.85 dB 03 The Animals | Don't Bring Me Down
    DR6 -1.18 dB -8.10 dB 04 The Animals | Cheating
    DR7 -0.18 dB -8.18 dB 05 The Animals | One Monkey Don't Stop No Show
    DR6 -0.18 dB -7.22 dB 06 The Animals | Maudie
    DR7 -0.10 dB -7.53 dB 07 The Animals | Sweet Little Sixteen
    DR8 -0.18 dB -8.91 dB 08 The Animals | You're On My Mind
    DR14 -0.18 dB -16.13 dB 09 The Animals | Clapping
    DR8 -0.18 dB -10.15 dB 10 The Animals | Gin House Blues
    DR7 -0.18 dB -8.14 dB 11 The Animals | Squeeze Her, Tease Her
    DR7 -0.18 dB -8.73 dB 12 The Animals | What Am I Living For?
    DR5 -0.60 dB -6.99 dB 13 The Animals | I Put A Spell On You
    DR6 -0.18 dB -7.57 dB 14 The Animals | That's All I Am To You
    DR7 -0.18 dB -8.39 dB 15 The Animals | She'll Return It
    DR6 -1.38 dB -8.81 dB 16 Eric Burdon & The Animals | Help Me Girl
    DR5 -2.48 dB -8.58 dB 17 Eric Burdon & The Animals | See See Rider
    DR9 -0.18 dB -11.35 dB 18 Eric Burdon | Mama Told Me Not To Come
    DR7 -0.78 dB -10.53 dB 19 The Alan Price Rhythm & Blues Combo | I Just Wanna Make Love To You
    DR6 -0.78 dB -7.88 dB 20 The Alan Price Rhythm & Blues Combo | Boom Boom
    DR7 -0.78 dB -8.58 dB 21 The Alan Price Rhythm & Blues Combo | Big Boss Man
    DR8 -0.18 dB -9.45 dB 22 The Alan Price Rhythm & Blues Combo | Pretty Thing
    ----------------------------------------------------------------------------------------------

    Number of files: 22
    Official DR value: DR7

    ==============================================================================================

    Artist: The Animals
    Album: Animalism
    Label: Hip-O Select
    Catalog Number: B0006215-02
    UPC: N/A
    Year: 2006
    Discogs Link: The Animals – Animalism (2006, CD)

    ----------------------------------------------------------------------------------------------
    The Animals | Animalism | 2006 | Hip-O Select | B0006215-02 | IFPI 2445 ** (B000621502SP) C06A0626D IFPI L771
    ----------------------------------------------------------------------------------------------
    DR Peak RMS Filename
    ----------------------------------------------------------------------------------------------

    DR8 -1.20 dB -10.77 dB 01 All Night Long
    DR9 -1.20 dB -11.41 dB 02 Shake
    DR8 -1.20 dB -10.92 dB 03 The Other Side Of This Life
    DR10 -0.20 dB -12.77 dB 04 Rock Me Baby
    DR9 -0.20 dB -11.44 dB 05 Lucille
    DR9 -0.20 dB -12.75 dB 06 Smoke Stack Lightning
    DR9 -0.50 dB -11.57 dB 07 Hey Gyp
    DR8 -0.40 dB -13.25 dB 08 Hit The Road, Jack
    DR9 -0.50 dB -12.76 dB 09 Outcast
    DR8 -1.99 dB -11.65 dB 10 Louisiana Blues
    DR8 -1.90 dB -11.15 dB 11 That's All I Am To You
    DR8 -1.20 dB -11.73 dB 12 Going Down Slow
    ----------------------------------------------------------------------------------------------

    Number of files: 12
    Official DR value: DR9

    ==============================================================================================

    Artist: The Animals
    Album: The Mickie Most Years And More
    Label: ABKCO
    Catalog Number: 018771899822
    UPC: 018771899822
    Year: 2013
    Discogs Link: The Animals – The Mickie Most Years And More (2013, CD)

    Disc 1: Graphic Sound EP (Individual Cat. No. 8996-2 / UPC: 018771899624)
    ----------------------------------------------------------------------------------------------
    The Animals | The Mickie Most Years And More | 2013 | ABKCO Music & Records, Inc. | 018771899822 | 0018771899822 | IFPI 50BK IFPI L329 A01 DIDX-1034454 1 | Disc 1
    ----------------------------------------------------------------------------------------------
    DR Peak RMS Filename
    ----------------------------------------------------------------------------------------------

    DR7 -0.08 dB -9.26 dB 1-01 I Just Wanna Make Love To You
    DR7 -0.10 dB -7.82 dB 1-02 Big Boss Man
    DR7 -0.27 dB -8.01 dB 1-03 Boom Boom
    DR7 -0.28 dB -8.73 dB 1-04 Pretty Thing
    ----------------------------------------------------------------------------------------------

    Number of files: 4
    Official DR value: DR7

    ==============================================================================================

    Disc 2: The Animals (1964) + Bonus Track (Individual Cat. No. 8996-2 / UPC: 018771899624)

    ----------------------------------------------------------------------------------------------
    The Animals | The Mickie Most Years And More | 2013 | ABKCO Music & Records, Inc. | 018771899822 | 0018771899822 | IFPI 50BL IFPI L327 A02 DIDX-1034455 2 | Disc 2
    ----------------------------------------------------------------------------------------------
    DR Peak RMS Filename
    ----------------------------------------------------------------------------------------------

    DR8 -0.04 dB -9.71 dB 2-01 House Of The Rising Sun
    DR7 over -8.71 dB 2-02 The Girl Can't Help It
    DR7 -0.08 dB -8.91 dB 2-03 Blue Feeling
    DR8 over -9.37 dB 2-04 Baby Let Me Take You Home
    DR8 -0.01 dB -9.39 dB 2-05 The Right Time
    DR7 -0.00 dB -8.87 dB 2-06 Talkin' 'Bout You
    DR9 -0.02 dB -10.34 dB 2-07 Around And Around
    DR9 over -10.19 dB 2-08 I'm In Love
    DR9 -0.01 dB -9.67 dB 2-09 Gonna Send You Back To Walker
    DR9 -0.06 dB -9.96 dB 2-10 Memphis, Tennessee
    DR8 -0.05 dB -10.10 dB 2-11 I'm Mad Again
    DR8 -0.05 dB -9.31 dB 2-12 I've Been Around
    DR7 -0.00 dB -8.49 dB 2-13 Talkin' 'Bout You (Full Version)
    ----------------------------------------------------------------------------------------------

    Number of files: 13
    Official DR value: DR8

    ==============================================================================================

    Disc 3: The Animals On Tour (1965) + Bonus Tracks (Individual Cat. No. 8997-2 / UPC: 018771899723)

    ----------------------------------------------------------------------------------------------
    The Animals | The Mickie Most Years And More | 2013 | ABKCO Music & Records, Inc. | 018771899822 | 0018771899822 | IFPI 50BK A01 IFPI L328 DIDX-1034456 2 | Disc 3
    ----------------------------------------------------------------------------------------------
    DR Peak RMS Filename
    ----------------------------------------------------------------------------------------------

    DR8 -0.00 dB -8.95 dB 3-01 Boom Boom
    DR9 -0.03 dB -10.55 dB 3-02 How You've Changed
    DR7 -0.03 dB -8.32 dB 3-03 Mess Around
    DR8 -0.05 dB -9.39 dB 3-04 Bright Lights, Big City
    DR8 -0.00 dB -10.93 dB 3-05 I Believe To My Soul
    DR8 -0.09 dB -9.99 dB 3-06 Worried Life Blues
    DR8 -0.06 dB -9.19 dB 3-07 Let The Good Times Roll
    DR9 -0.09 dB -9.69 dB 3-08 Ain't Got You
    DR8 -0.05 dB -9.75 dB 3-09 Hallelujah, I Love Her So
    DR9 over -9.85 dB 3-10 I'm Crying
    DR8 -0.01 dB -9.12 dB 3-11 Dimples
    DR9 -0.00 dB -9.92 dB 3-12 She Said Yeah
    DR9 -0.04 dB -10.19 dB 3-13 Baby What's Wrong
    DR8 -0.02 dB -9.43 dB 3-14 F-E-E-L
    DR14 -0.47 dB -17.62 dB 3-15 New Year's Radio Spot
    ----------------------------------------------------------------------------------------------

    Number of files: 15
    Official DR value: DR9

    ==============================================================================================

    Disc 4: Animal Tracks (1965) + Bonus Tracks (Individual Cat. No. 8101-2 / UPC: 018771810124)

    ----------------------------------------------------------------------------------------------
    The Animals | The Mickie Most Years And More | 2013 | ABKCO Music & Records, Inc. | 018771899822 | 0018771899822 | IFPI 50BL A01 IFPI L329 DIDX-1034457 2 | Disc 4
    ----------------------------------------------------------------------------------------------
    DR Peak RMS Filename
    ----------------------------------------------------------------------------------------------

    DR9 -0.11 dB -9.91 dB 4-01 We Gotta Get Out Of This Place
    DR9 -0.16 dB -9.84 dB 4-02 Take It Easy Baby
    DR6 -0.08 dB -8.08 dB 4-03 Bring It On Home To Me
    DR8 over -9.30 dB 4-04 The Story Of Bo Diddley
    DR8 -0.17 dB -9.65 dB 4-05 Don't Let Me Be Misunderstood
    DR8 -0.15 dB -10.22 dB 4-06 I Can't Believe It
    DR8 -0.15 dB -9.33 dB 4-07 Club A-Go-Go
    DR7 -0.14 dB -8.38 dB 4-08 Roberta
    DR9 -0.15 dB -10.50 dB 4-09 Bury My Body
    DR10 over -11.13 dB 4-10 For Miss Caulker
    DR8 -0.06 dB -9.35 dB 4-11 Roadrunner
    DR9 over -10.11 dB 4-12 Don't Want Much
    DR8 over -9.43 dB 4-13 We Gotta Get Out Of This Place (U.K. Single Version)
    DR7 -0.10 dB -8.56 dB 4-14 It's My Life
    DR8 -0.17 dB -9.11 dB 4-15 I'm Gonna Change The World
    ----------------------------------------------------------------------------------------------

    Number of files: 15
    Official DR value: DR8

    ==============================================================================================

    Disc 5: Animalization (1966) + Bonus Tracks (Individual Cat. No. 8995-2 / UPC: 018771899525)

    ----------------------------------------------------------------------------------------------
    The Animals | The Mickie Most Years And More | 2013 | ABKCO Music & Records, Inc. | 018771899822 | 0018771899822 | IFPI 50BL IFPI L329 DIDX-1034458 1 B03 | Disc 5
    ----------------------------------------------------------------------------------------------
    DR Peak RMS Filename
    ----------------------------------------------------------------------------------------------

    DR8 -0.26 dB -9.45 dB 5-01 Don't Bring Me Down
    DR8 -0.68 dB -9.61 dB 5-02 One Monkey Don't Stop No Show
    DR8 -0.29 dB -9.16 dB 5-03 You're On My Mind
    DR9 over -9.69 dB 5-04 Cheating
    DR8 -0.18 dB -9.12 dB 5-05 She'll Return It
    DR9 -0.15 dB -9.68 dB 5-06 Inside-Looking Out
    DR7 -0.18 dB -8.69 dB 5-07 See See Rider
    DR9 -0.19 dB -10.35 dB 5-08 Gin House Blues
    DR8 -0.28 dB -9.49 dB 5-09 Maudie
    DR9 -0.29 dB -9.97 dB 5-10 What Am I Living For
    DR9 -0.21 dB -9.30 dB 5-11 Sweet Little Sixteen
    DR9 -0.25 dB -10.25 dB 5-12 I Put A Spell On You
    DR8 -0.23 dB -9.98 dB 5-13 Don't Bring Me Down (Stereo)
    DR10 over -10.65 dB 5-14 Cheating (Stereo)
    DR9 -0.17 dB -9.96 dB 5-15 See See Rider (Stereo)
    ----------------------------------------------------------------------------------------------

    Number of files: 15
    Official DR value: DR8

    ==============================================================================================

    Discs 2-5 are available as hi-res downloads for a fraction of the price of the poorly-constructed physical box set. I don't recommend the box, but I do recommend the downloads. I posted a detailed review on the Discogs page.
     
    oboogie and hodgo like this.
  5. Crawdad

    Crawdad Detroit Rock Citizen

    Neil Young – Hitchhiker (2017, CD)
     
  6. Crawdad

    Crawdad Detroit Rock Citizen

    Looks like it's easily searchable to me.

    [​IMG]
     
  7. Crawdad

    Crawdad Detroit Rock Citizen

  8. Crawdad

    Crawdad Detroit Rock Citizen

    Tina Turner – Private Dancer (1984, CD)

    [​IMG]

    Label: Capitol Records – CDP 7 46041 2
    Format: CD, Album
    Country:US
    Released:1984
    Genre:Rock
    Style:Pop Rock, Soul

    foobar2000 1.6.6 / Dynamic Range Meter 1.1.1
    log date: 2021-09-14 20:52:30
    --------------------------------------------------------------------------------
    Analyzed: Tina Turner / Private Dancer
    --------------------------------------------------------------------------------
    DR Peak RMS Duration Track
    --------------------------------------------------------------------------------
    DR12 -0.49 dB -14.22 dB 4:10 01-I Might Have Been Queen
    DR13 0.00 dB -15.14 dB 3:50 02-What's Love Got To Do With It
    DR13 -1.19 dB -15.81 dB 3:20 03-Show Some Respect
    DR13 -1.76 dB -17.20 dB 3:42 04-I Can't Stand The Rain
    DR13 0.00 dB -16.28 dB 7:13 05-Private Dancer
    DR10 -2.11 dB -14.71 dB 5:16 06-Let's Stay Together
    DR13 0.00 dB -15.68 dB 5:12 07-Better Be Good To Me
    DR11 0.00 dB -11.81 dB 3:50 08-Steel Claw
    DR14 -2.39 dB -19.07 dB 4:31 09-Help
    DR12 -1.96 dB -16.95 dB 3:10 10-1984
    --------------------------------------------------------------------------------
    Number of tracks: 10
    Official DR value: DR12
    Samplerate: 44100 Hz
    Channels: 2
    Bits per sample: 16
    Bitrate: 1013 kbps
    Codec: FLAC
    ================================================================================
     
    hodgo likes this.
  9. InStepWithTheStars

    InStepWithTheStars It's a miracle, let it alter you

    Location:
    North Carolina
    I've already uploaded this to the now-defunct DR database, and I don't want to add a lot of redundant entries here, but I'm rather proud of this. Through this forum, I became an audiophile (and amateur mastering engineer), and through Patreon I became a friend of Robert Harrison, a delightful songwriter with a voice kinda similar to someone named John, a sense for melody similar to someone named Paul, and a last name kinda similar to someone named George (Ringo's in there somewhere, I swear).

    Almost everything he's released has had most of the life squeezed out of it; only a few songs on Future Clouds + Radar escaped the limiter's wrath. He's always used the same CD mastering for vinyl (potentially at a higher resolution, but I'm not positive about that – I do know that the mastering itself is the same). He's just released his first solo album, and the CD and download are both loud and compressed:

    ----------------------------------------------------------------------------------------------
    Robert Harrison | Watching The Kid Come Back | 2021 | 0750958011541
    ----------------------------------------------------------------------------------------------
    DR Peak RMS Filename
    ----------------------------------------------------------------------------------------------

    DR5 over -6.72 dB 01 Face In The Crowd
    DR7 over -9.44 dB 02 Watching The Kid Come Back
    DR6 -0.00 dB -7.30 dB 03 Real Life Satyr
    DR7 over -8.46 dB 04 Battle Royale
    DR7 -0.08 dB -9.24 dB 05 Cool Water Blue Rain
    DR6 over -7.44 dB 06 Ah Wilderness
    DR9 -0.25 dB -12.22 dB 07 Sitting In The Sun
    DR7 over -8.29 dB 08 Stella Not Too Late
    DR9 over -11.74 dB 09 Great Auk Stories
    DR8 -0.11 dB -9.36 dB 10 Someday We'll Be Together
    ----------------------------------------------------------------------------------------------

    Number of files: 10
    Official DR value: DR7

    ==============================================================================================

    However, the vinyl edition will have a different mastering, which I'd like to think was inspired by me always telling him how great his mixes sound without compression (and they do):

    ----------------------------------------------------------------------------------------------
    Analyzed folder: Robert Harrison - Watching The Kid Come Back (Digital Files for Vinyl Production)
    ----------------------------------------------------------------------------------------------
    DR Peak RMS Filename
    ----------------------------------------------------------------------------------------------

    DR11 -1.91 dB -14.89 dB 01 Face In The Crowd
    DR13 -2.35 dB -17.76 dB 02 Watching The Kid Come Back
    DR13 -1.04 dB -15.54 dB 03 Real-Life Satyr
    DR14 -1.02 dB -16.58 dB 04 Battle Royale
    DR11 -4.30 dB -17.60 dB 05 Cool Water Blue Rain
    DR13 -1.56 dB -15.74 dB 06 Ah Wilderness
    DR12 -5.45 dB -20.61 dB 07 Sitting In The Sun
    DR11 -3.02 dB -16.64 dB 08 Stella Not Too Late
    DR14 -2.02 dB -20.09 dB 09 Great Auk Stories
    DR8 -9.03 dB -18.24 dB 10 Someday We'll Be Together
    ----------------------------------------------------------------------------------------------

    Number of files: 10
    Official DR value: DR12

    ==============================================================================================

    Never let it be said that we can't win the fight against loud mastering. :righton: I'm currently trying to convince him to let me have a crack at his old albums – if I could get Kontiki, man, my life would be complete.
     
    Last edited: Sep 14, 2021 at 9:42 PM
    Lance LaSalle and hodgo like this.
  10. Crawdad

    Crawdad Detroit Rock Citizen

    Prince – Sign "O" The Times (2020, CD) [2020 Remaster - 3 Disc]

    [​IMG]

    Label:
    Warner Records – 603497846566, NPG Records – 603497846566, The Prince Estate – R2 643352
    Format:
    2 x CD, Album, Reissue, Remastered
    CD, Compilation, Remastered
    All Media, Compilation, Deluxe Edition
    Country:
    US
    Released:
    Sep 25, 2020
    Genre:
    Rock, Funk / Soul, Pop
    Style:
    Minneapolis Sound, Funk, Pop Rock, Contemporary R&B

    foobar2000 1.6.6 / Dynamic Range Meter 1.1.1
    log date: 2021-09-15 07:54:50
    --------------------------------------------------------------------------------
    Analyzed: Prince / Sign 'o' the Times [Disc 1] [2020 Remaster]
    --------------------------------------------------------------------------------
    DR Peak RMS Duration Track
    --------------------------------------------------------------------------------
    DR10 -1.22 dB -12.77 dB 4:57 01-Sign O’ the Times (2020 Remaster)
    DR11 0.00 dB -13.13 dB 5:05 02-Play in the Sunshine (2020 Remaster)
    DR11 0.00 dB -12.25 dB 4:39 03-Housequake (2020 Remaster)
    DR14 0.00 dB -16.84 dB 4:03 04-The Ballad of Dorothy Parker (2020 Remaster)
    DR12 0.00 dB -13.66 dB 5:10 05-It (2020 Remaster)
    DR15 0.00 dB -16.38 dB 2:50 06-Starfish and Coffee (2020 Remaster)
    DR13 -0.56 dB -16.35 dB 4:22 07-Slow Love (2020 Remaster)
    DR14 0.00 dB -16.13 dB 5:39 08-Hot Thing (2020 Remaster)
    DR16 0.00 dB -18.44 dB 3:32 09-Forever in My Life (2020 Remaster)
    --------------------------------------------------------------------------------
    Number of tracks: 9
    Official DR value: DR13
    Samplerate: 44100 Hz
    Channels: 2
    Bits per sample: 16
    Bitrate: 846 kbps
    Codec: FLAC
    ================================================================================

    foobar2000 1.6 / Dynamic Range Meter 1.1.1
    log date: 2021-03-08 06:31:29
    --------------------------------------------------------------------------------
    Analyzed: Prince / Sign 'o' the Times [Disc 2] [2020 Remaster]
    --------------------------------------------------------------------------------
    DR Peak RMS Duration Track
    --------------------------------------------------------------------------------
    DR12 -0.09 dB -14.93 dB 3:46 01-U Got the Look (2020 Remaster)
    DR13 -2.18 dB -17.54 dB 5:03 02-If I Was Your Girlfriend (2020 Remaster)
    DR13 0.00 dB -13.88 dB 4:01 03-Strange Relationship (2020 Remaster)
    DR11 0.00 dB -13.47 dB 6:29 04-I Could Never Take the Place of Your Man (2020 Remaster)
    DR11 -0.05 dB -15.41 dB 4:48 05-The Cross (2020 Remaster)
    DR13 0.00 dB -14.09 dB 9:02 06-It’s Gonna Be a Beautiful Night (2020 Remaster)
    DR12 0.00 dB -14.96 dB 6:35 07-Adore (2020 Remaster)
    --------------------------------------------------------------------------------
    Number of tracks: 7
    Official DR value: DR12
    Samplerate: 44100 Hz
    Channels: 2
    Bits per sample: 16
    Bitrate: 890 kbps
    Codec: FLAC
    ================================================================================

    foobar2000 1.6.6 / Dynamic Range Meter 1.1.1
    log date: 2021-09-15 07:55:13
    --------------------------------------------------------------------------------
    Analyzed: Prince / Sign 'o' the Times [Disc 3] [2020 Remaster]
    --------------------------------------------------------------------------------
    DR Peak RMS Duration Track
    --------------------------------------------------------------------------------
    DR10 -1.17 dB -14.08 dB 3:41 01-Sign O’ the Times (Edit) (2020 Remaster)
    DR13 0.00 dB -15.00 dB 3:47 02-If I Was Your Girlfriend (Edit) (2020 Remaster)
    DR11 0.00 dB -12.60 dB 3:22 03-Housequake (Edit) (2020 Remaster)
    DR10 0.00 dB -11.74 dB 3:39 04-I Could Never Take the Place of Your Man (Fade) (2020 Remaster)
    DR12 0.00 dB -14.38 dB 3:41 05-Hot Thing (Edit) (2020 Remaster)
    DR12 0.00 dB -13.99 dB 3:22 06-La, la, la, He, He, Hee (Edit) (2020 Remaster)
    DR12 0.00 dB -13.07 dB 3:31 07-Shockadelica (2020 Remaster)
    DR11 0.00 dB -12.24 dB 6:41 08-U Got the Look (Long Look) (2020 Remaster)
    DR10 0.00 dB -12.15 dB 7:12 09-Housequake (7 Minutes Moquake) (2020 Remaster)
    DR14 0.00 dB -15.06 dB 8:32 10-Hot Thing (Extended Remix) (2020 Remaster)
    DR11 0.00 dB -12.43 dB 10:47 11-La, la, la, He, He, Hee (Highly Explosive) (2020 Remaster)
    DR11 0.00 dB -12.13 dB 6:13 12-Shockadelica (12″ Long Version) (2020 Remaster)
    DR15 0.00 dB -16.16 dB 6:53 13-Hot Thing (Dub Version) (2020 Remaster)
    --------------------------------------------------------------------------------
    Number of tracks: 13
    Official DR value: DR12
    Samplerate: 44100 Hz
    Channels: 2
    Bits per sample: 16
    Bitrate: 872 kbps
    Codec: FLAC
    ================================================================================

    Personal opinion: this sounds fantastic.
     
    MikeManaic61, Joy-of-radio and hodgo like this.
  11. Crawdad

    Crawdad Detroit Rock Citizen

    Fleetwood Mac – Fleetwood Mac [2018 Hi Res Edition]

    [​IMG]

    Label:
    Warner Bros. – none, Rhino Records (2) – none
    Format:
    46 x File, FLAC, Album, Deluxe Edition, Remastered, 24bit-96kHz
    Country:
    Released:

    2018 (originally 1975)
    Genre:
    Rock, Pop
    Style:
    Classic Rock, Pop Rock

    foobar2000 1.6.6 / Dynamic Range Meter 1.1.1
    log date: 2021-09-15 08:11:48
    --------------------------------------------------------------------------------
    Analyzed: Fleetwood Mac / Fleetwood Mac (Deluxe Edition)
    --------------------------------------------------------------------------------
    DR Peak RMS Duration Track
    --------------------------------------------------------------------------------
    DR9 -0.61 dB -11.40 dB 2:49 01-Monday Morning (2017 Remaster)
    DR10 -0.86 dB -13.46 dB 3:54 02-Warm Ways (2017 Remaster)
    DR9 -0.40 dB -11.23 dB 2:41 03-Blue Letter (2017 Remaster)
    DR8 -0.92 dB -10.26 dB 4:10 04-Rhiannon (2017 Remaster)
    DR10 -1.08 dB -13.74 dB 3:38 05-Over My Head (2017 Remaster)
    DR10 -0.20 dB -14.49 dB 5:11 06-Crystal (2017 Remaster)
    DR9 -0.77 dB -11.99 dB 4:10 07-Say You Love Me (2017 Remaster)
    DR10 -1.93 dB -14.01 dB 3:19 08-Landslide (2017 Remaster)
    DR10 -0.75 dB -14.27 dB 4:25 09-World Turning (2017 Remaster)
    DR11 -0.32 dB -12.02 dB 4:10 10-Sugar Daddy (2017 Remaster)
    DR9 -0.48 dB -11.07 dB 4:30 11-I'm So Afraid (2017 Remaster)
    DR10 -0.70 dB -13.29 dB 3:10 12-Over My Head (Single Version) [2017 Remaster]
    DR9 -1.37 dB -11.82 dB 3:48 13-Rhiannon (Will You Ever Win) [2017 Remaster]
    DR8 -0.79 dB -11.89 dB 4:03 14-Say You Love Me (Single Version) [2017 Remaster]
    DR10 -0.83 dB -11.81 dB 2:42 15-Blue Letter
    DR11 0.00 dB -12.34 dB 2:50 16-Monday Morning (Early Take)
    DR12 -0.46 dB -15.14 dB 3:54 17-Warm Ways (Early Take)
    DR11 -0.09 dB -12.82 dB 2:49 18-Blue Letter (Early Take)
    DR10 0.00 dB -12.06 dB 4:36 19-Rhiannon (Early Take)
    DR13 -0.24 dB -15.07 dB 2:58 20-Over My Head (Early Take)
    DR11 -0.26 dB -15.22 dB 4:05 21-Crystal (Early Version)
    DR12 -0.11 dB -14.03 dB 4:18 22-Say You Love Me (Early Version)
    DR11 -1.23 dB -15.89 dB 3:18 23-Landslide (Early Version)
    DR12 -0.48 dB -15.28 dB 5:40 24-World Turning (Early Version)
    DR12 -0.22 dB -14.53 dB 4:07 25-Sugar Daddy (Early Take)
    DR12 -0.01 dB -13.80 dB 4:49 26-I'm So Afraid (Early Version)
    DR15 0.00 dB -16.18 dB 3:03 27-Over My Head (Live from the Burbank Studios, Burbank, Ca, 1/26/76)
    DR11 0.00 dB -13.95 dB 6:37 28-Rhiannon (Live from the Burbank Studios, Burbank, Ca, 1/26/76)
    DR16 -0.08 dB -19.33 dB 4:00 29-Why (Live from the Burbank Studios, Burbank, Ca, 1/26/76)
    DR13 -0.05 dB -16.24 dB 5:18 30-World Turning (Live from the Burbank Studios, Burbank, Ca, 1/26/76)
    DR14 0.00 dB -16.77 dB 5:36 31-Jam #2 (2018 Remaster)
    DR13 -0.04 dB -14.62 dB 7:13 32-I'm So Afraid (Early Take Instrumental)
    DR10 -0.40 dB -13.10 dB 4:24 33-Get Like You Used to Be (Live at Capitol Theatre, Passaic, NJ, 10/17/75)
    DR11 0.00 dB -12.75 dB 6:18 34-Station Man (Live at Jorgensen Auditorium, University of Connecticut, Storrs, CT, 10/25/75)
    DR10 0.00 dB -12.35 dB 4:30 35-Spare Me a Little (Live at Jorgensen Auditorium, University of Connecticut, Storrs, CT, 10/25/75)
    DR8 0.00 dB -10.81 dB 7:57 36-Rhiannon (Live at Jorgensen Auditorium, University of Connecticut, Storrs, CT, 10/25/75)
    DR10 0.00 dB -12.69 dB 4:22 37-Why (Live at Jorgensen Auditorium, University of Connecticut, Storrs, CT, 10/25/75)
    DR11 -3.55 dB -19.16 dB 3:55 38-Landslide (Live at Jorgensen Auditorium, University of Connecticut, Storrs, CT, 10/25/75)
    DR10 0.00 dB -12.56 dB 3:24 39-Over My Head (Live at Campus Stadium, University of California, Santa Barbara, Ca 5/2/76)
    DR9 0.00 dB -11.64 dB 5:47 40-I'm So Afraid (Live at Capitol Theatre, Passaic, NJ, 10/17/75)
    DR10 0.00 dB -13.81 dB 3:00 41-Oh Well (Pt. 1) [Live at Live at Capitol Theatre, Passaic, NJ, October 17, 1975]
    DR9 0.00 dB -11.55 dB 5:31 42-The Green Manalishi (With the Two Pronged Crown) [Live at Capitol Theatre, Passaic, NJ, 10/17/75]
    DR12 0.00 dB -14.23 dB 8:35 43-World Turning (Live at Capitol Theatre, Passaic, NJ, 10/17/75)
    DR11 0.00 dB -12.14 dB 3:39 44-Blue Letter (Live at Capitol Theatre, Passaic, NJ, 10/17/75)
    DR11 0.00 dB -12.57 dB 4:06 45-Don't Let Me Down Again (Live at Jorgensen Auditorium, University of Connecticut, Storrs, CT, 10/25/75)
    DR11 0.00 dB -15.38 dB 9:46 46-Hypnotized (Live at Jorgensen Auditorium, University of Connecticut, Storrs, CT, 10/25/75)
    --------------------------------------------------------------------------------
    Number of tracks: 46
    Official DR value: DR11
    Samplerate: 96000 Hz
    Channels: 2
    Bits per sample: 24
    Bitrate: 3251 kbps
    Codec: FLAC
    ================================================================================

    Personal Opinion: Sounds great. From Track 33 on you have the equivalent an excellent live album. A release I bought because I streamed it first.
     
    hodgo likes this.
  12. Crawdad

    Crawdad Detroit Rock Citizen

    I'm not about to post all 5000+ CDs I have. I'll post some favorites and that's it. I don't think of it as a mimicking as it is a digest. I trust the opinions here a tad more than I do the average consumer. If someone is taking the time to post an album here, there must be a reason for it. This is why I'm posting the link to the proper Discogs page. These DR files correspond to a specific release. I may want to know if that release is for sale.
     
    hodgo likes this.
  13. hodgo

    hodgo Tea Making Gort (Yorkshire Branch) Staff Thread Starter

    Location:
    East Yorkshire
    :righton:

    Thank you and well stated.

    I would also like to say a big thank you to all those members who are putting in the time and effort required to post their DR readings. As Crawdad quite rightly points out, this thread is not designed to replace the DR database, the idea is for it to rum alongside it.
     
  14. Crawdad

    Crawdad Detroit Rock Citizen

    Pink Floyd – The Dark Side Of The Moon (2003, Crest National, SACD) [2003 Hybrid]

    [​IMG]

    Label:
    Capitol Records – CDP 7243 5 82136 2 1-US
    Format:
    SACD, Hybrid, Multichannel, Stereo, Album, Reissue, Remastered, Crest National
    Country:
    US
    Released:
    2003
    Genre:
    Rock
    Style:
    Psychedelic Rock, Prog Rock

    foobar2000 1.6.4 / Dynamic Range Meter 1.1.1
    log date: 2021-06-10 07:58:54
    --------------------------------------------------------------------------------
    Analyzed: Pink Floyd / Dark Side of the Moon [2003 Hybrid]
    --------------------------------------------------------------------------------
    DR Peak RMS Duration Track
    --------------------------------------------------------------------------------
    DR10 -9.27 dB -22.47 dB 1:08 01-Speak to Me
    DR10 -0.68 dB -13.99 dB 2:49 02-Breathe
    DR10 -0.72 dB -15.82 dB 3:51 03-On the Run
    DR10 -0.63 dB -12.73 dB 6:50 04-Time
    DR9 -0.65 dB -14.27 dB 4:44 05-The Great Gig in the Sky
    DR8 0.00 dB -11.24 dB 6:23 06-Money
    DR9 -1.48 dB -14.92 dB 7:50 07-Us and Them
    DR10 0.00 dB -11.69 dB 3:26 08-Any Colour You Like
    DR10 0.00 dB -14.64 dB 3:47 09-Brain Damage
    DR8 0.00 dB -11.15 dB 2:12 10-Eclipse
    --------------------------------------------------------------------------------
    Number of tracks: 10
    Official DR value: DR9
    Samplerate: 44100 Hz
    Channels: 2
    Bits per sample: 16
    Bitrate: 825 kbps
    Codec: FLAC
    ================================================================================

    Personal Opinion: Am I the only person who loves the 16/44 here?
     
    hodgo likes this.
  15. Crawdad

    Crawdad Detroit Rock Citizen

    John Anderson – Greatest Hits (CD) John Anderson – Greatest Hits (CD)

    [​IMG]

    Label:
    Warner Bros. Records – 9 25169-2
    Format:
    CD, Compilation, Reissue, Repress
    Country:
    US
    Released:
    original release 1984
    Genre:
    Folk, World, & Country
    Style:
    Country

    foobar2000 1.6.6 / Dynamic Range Meter 1.1.1
    log date: 2021-09-15 08:43:12
    --------------------------------------------------------------------------------
    Analyzed: John Anderson / Greatest Hits
    --------------------------------------------------------------------------------
    DR Peak RMS Duration Track
    --------------------------------------------------------------------------------
    DR15 -4.16 dB -21.73 dB 3:04 01-Swingin'
    DR14 -6.43 dB -24.89 dB 3:33 02-I Just Came Home To Count The Memories
    DR14 -5.54 dB -22.66 dB 2:21 03-She Just Started Liking Cheatin' Songs
    DR15 -3.59 dB -23.27 dB 2:58 04-1959
    DR15 -6.26 dB -23.17 dB 2:43 05-Chicken Truck
    DR13 -7.33 dB -22.85 dB 3:44 06-I'm Just An Old Chunk Of Coal (But I'm Gonna Be A Diamond Someday)
    DR14 -5.42 dB -21.95 dB 2:56 07-Would You Catch A Falling Star
    DR12 -8.58 dB -23.22 dB 2:47 08-Wild And Blue
    DR15 -5.79 dB -22.99 dB 3:00 09-Your Lying Blue Eyes
    DR13 -5.82 dB -21.48 dB 2:57 10-Black Sheep
    --------------------------------------------------------------------------------
    Number of tracks: 10
    Official DR value: DR14
    Samplerate: 44100 Hz
    Channels: 2
    Bits per sample: 16
    Bitrate: 877 kbps
    Codec: FLAC
    ================================================================================

    Personal Opinion:
    It's even quieter than it's numbers would suggest. It's a great album when you want to put on some Country.
     
    Joy-of-radio and hodgo like this.
  16. Crawdad

    Crawdad Detroit Rock Citizen

    RUM?

    [​IMG]
     
    hodgo likes this.
  17. Crawdad

    Crawdad Detroit Rock Citizen

    Miles Davis – In A Silent Way (2002, CD)

    [​IMG]

    Label:
    Columbia – CK 86556, Legacy – CK 86556
    Series:
    Columbia Jazz
    Format:
    CD, Album, Reissue, Remastered
    Country:
    US
    Released:
    Aug 2002 [Originally released 1969]
    Genre:
    Jazz
    Style:
    Post Bop, Fusion, Modal


    foobar2000 1.6.6 / Dynamic Range Meter 1.1.1
    log date: 2021-09-15 09:01:24
    --------------------------------------------------------------------------------
    Analyzed: Miles Davis / In a Silent Way
    --------------------------------------------------------------------------------
    DR Peak RMS Duration Track
    --------------------------------------------------------------------------------
    DR10 -0.01 dB -12.67 dB 18:16 01-Shhh , Peaceful
    DR11 -0.01 dB -14.18 dB 19:52 02-In a Silent Way , It's About That Time
    --------------------------------------------------------------------------------
    Number of tracks: 2
    Official DR value: DR11
    Samplerate: 44100 Hz
    Channels: 2
    Bits per sample: 16
    Bitrate: 799 kbps
    Codec: FLAC
    ================================================================================

    Personal Opinion:
    Should be a Prog lovers favorite Jazz album
     
  18. hodgo

    hodgo Tea Making Gort (Yorkshire Branch) Staff Thread Starter

    Location:
    East Yorkshire
    :laughup:

    Oops! another poor typing effort from yours truly. I am partial to a drop of rum though :D
     
    Crawdad and oboogie like this.
  19. hodgo

    hodgo Tea Making Gort (Yorkshire Branch) Staff Thread Starter

    Location:
    East Yorkshire
    Here we have two different releases of the same album, the original Polydor issue from 1990 followed by the remastered and expanded edition from 2008.

    Whilst the bonus tracks on the 2008 reissue are nice to have, the overall sound quality is not a patch on the original Polydor issue.

    [​IMG]

    Tupelo Honey - (Original Polydor CD)


    Artist - Van Morrison

    Album - Tupelo Honey

    Label - Polydor 839 161-2

    UPC - 042283916128

    Year - 1990

    foobar2000 1.3.17 / Dynamic Range Meter 1.1.1
    log date: 2019-03-16 10:14:48

    --------------------------------------------------------------------------------
    Analyzed: Van Morrison / Tupelo Honey
    --------------------------------------------------------------------------------

    DR Peak RMS Duration Track
    --------------------------------------------------------------------------------
    DR12 -0.82 dB -14.57 dB 3:33 01-Wild Night
    DR13 -0.20 dB -15.01 dB 3:40 02-(Straight To Your Heart) Like A Cannonball
    DR12 -0.52 dB -17.32 dB 4:13 03-Old Old Woodstock
    DR12 -1.45 dB -16.35 dB 2:10 04-Starting A New Life
    DR14 -0.21 dB -17.23 dB 6:42 05-You're My Woman
    DR12 -0.18 dB -17.17 dB 6:50 06-Tupelo Honey
    DR13 -0.64 dB -15.96 dB 3:25 07-I Wanna Roo You (Scottish Derivative)
    DR11 -0.97 dB -13.77 dB 3:06 08-When That Evening Sun Goes Down
    DR12 -0.44 dB -16.07 dB 6:47 09-Moonshine Whiskey
    --------------------------------------------------------------------------------

    Number of tracks: 9
    Official DR value: DR12

    Samplerate: 44100 Hz
    Channels: 2
    Bits per sample: 16
    Bitrate: 1411 kbps
    Codec: CDDA
    ================================================================================

    [​IMG]

    Tupelo Honey - (Expanded and Remastered CD)

    Artist - Van Morrison

    Album - Tupelo Honey

    Label - Polydor – 5305446, Exile – 5305446

    UPC - 600753054468

    Year - 2008

    foobar2000 1.3.17 / Dynamic Range Meter 1.1.1
    log date: 2018-08-24 20:11:10

    --------------------------------------------------------------------------------
    Analyzed: Morrison, Van / Tupelo Honey (Remastered and Expanded)
    --------------------------------------------------------------------------------

    DR Peak RMS Duration Track
    --------------------------------------------------------------------------------
    DR8 0.00 dB -9.31 dB 3:35 01-Wild night
    DR8 0.00 dB -10.20 dB 3:42 02-(Straight to your heart) Like a cannonball
    DR8 0.00 dB -11.60 dB 4:19 03-Old old Woodstock
    DR10 0.00 dB -11.75 dB 2:11 04-Starting a new life
    DR9 0.00 dB -11.78 dB 6:46 05-You're my woman
    DR7 0.00 dB -10.41 dB 6:57 06-Tupleo honey
    DR9 0.00 dB -10.63 dB 3:27 07-I wanna roo you (Scottish derivative)
    DR7 0.00 dB -8.34 dB 3:05 08-When that evening sun goes down
    DR8 0.00 dB -10.70 dB 6:56 09-Moonshine whiskey
    DR10 0.00 dB -11.55 dB 5:37 10-Wild night (Alternative take)
    DR9 0.00 dB -10.38 dB 3:57 11-Down by the riverside
    --------------------------------------------------------------------------------

    Number of tracks: 11
    Official DR value: DR8

    Samplerate: 44100 Hz
    Channels: 2
    Bits per sample: 16
    Bitrate: 1411 kbps
    Codec: CDDA
    ================================================================================
     
    Joy-of-radio likes this.
  20. InStepWithTheStars

    InStepWithTheStars It's a miracle, let it alter you

    Location:
    North Carolina
    How does one get in contact with the owner of that site, though? I never found a means of doing that. Maybe I just missed an option at the bottom of the page, but I was never clear of who runs it.

    At any rate, I personally intend to use this thread to post DR logs of releases that are not currently a part of the database, rather than posting redundant ones. That eliminates the "competition" aspect, IMO.
     
    Yost and hodgo like this.
  21. hodgo

    hodgo Tea Making Gort (Yorkshire Branch) Staff Thread Starter

    Location:
    East Yorkshire
    I think this is his email which was posted at the bottom of his website..... dr@loudness-war.info
     
    InStepWithTheStars and Yost like this.
  22. InStepWithTheStars

    InStepWithTheStars It's a miracle, let it alter you

    Location:
    North Carolina
    Huh. I always thought that was just a link to the top of the page. The only difference is an at-sign instead of a period. It"s just punctuation< who cares/

    Anyway, getting back on topic – inspired by another thread I was just posting in...

    Artist: Dave Davies with The Kinks
    Album: The Album That Never Was
    Label: PRT/Teldec
    Catalog Number: 8.26681 ZR
    UPC: 4001408266810
    Year: 1987 or 1988
    Discogs Link: Dave Davies – The Album That Never Was (1987, CD)

    ----------------------------------------------------------------------------------------------
    Dave Davies | The Album That Never Was | 1987 | TELDEC Schallplatten GmbH | PRT 8.26681 | 4001408266810 | 8.26681 @ 1
    ----------------------------------------------------------------------------------------------
    DR Peak RMS Filename
    ----------------------------------------------------------------------------------------------

    DR12 -1.26 dB -16.02 dB 01 Death Of A Clown
    DR10 -0.83 dB -12.96 dB 02 Love Me Till The Sun Shines
    DR12 -1.56 dB -15.24 dB 03 Suzannah's Still Alive
    DR13 -1.52 dB -16.13 dB 04 Funny Face
    DR11 -2.25 dB -15.31 dB 05 Lincoln Country
    DR9 -2.75 dB -13.32 dB 06 There Is No Life Without Love
    DR10 -1.69 dB -13.52 dB 07 Hold My Hand
    DR10 -1.45 dB -13.56 dB 08 Creepin' Jean
    DR12 -1.32 dB -14.41 dB 09 Mindless Child Of Motherhood
    DR11 -2.37 dB -14.28 dB 10 This Man He Weeps Tonight
    ----------------------------------------------------------------------------------------------

    Number of files: 10
    Official DR value: DR11

    ==============================================================================================
     
    hodgo and oboogie like this.
  23. Crawdad

    Crawdad Detroit Rock Citizen

    Brand New to me!!

    Elton John – Rock Of The Westies (1987, CD)

    [​IMG]

    Label:
    MCA Records – MCAD-31001
    Series:
    Compact Disc Compact Price
    Format:
    CD, Album
    Country:
    US
    Released:
    Aug 1987
    Genre:
    Rock
    Style:
    Classic Rock

    foobar2000 1.6.6 / Dynamic Range Meter 1.1.1
    log date: 2021-09-15 22:48:32
    --------------------------------------------------------------------------------
    Analyzed: Elton John / Rock of the Westies [MCA Release]
    --------------------------------------------------------------------------------
    DR Peak RMS Duration Track
    --------------------------------------------------------------------------------
    DR13 0.00 dB -17.14 dB 6:16 01-Medley- Yell Help , Wednesday Night , Ugly
    DR13 -1.03 dB -17.52 dB 3:30 02-Dan Dare (Pilot of the Future)
    DR13 0.00 dB -16.36 dB 3:43 03-Island Girl
    DR14 -0.78 dB -16.64 dB 4:46 04-Grow Some Funk of Your Own
    DR13 -3.19 dB -19.19 dB 5:31 05-I Feel Like a Bullet (in the Gun of Robert Ford)
    DR13 -0.43 dB -15.72 dB 6:23 06-Street Kids
    DR13 -0.76 dB -16.57 dB 5:16 07-Hard Luck Story
    DR13 -0.24 dB -16.09 dB 4:01 08-Feed Me
    DR13 -2.14 dB -17.61 dB 4:25 09-Billy Bones and the White Bird
    --------------------------------------------------------------------------------
    Number of tracks: 9
    Official DR value: DR13
    Samplerate: 44100 Hz
    Channels: 2
    Bits per sample: 16
    Bitrate: 930 kbps
    Codec: FLAC
    ================================================================================
     
    Oyster Boy and hodgo like this.
  24. mr.datsun

    mr.datsun Incompletist

    Location:
    London
    This seems like a better solution than creating threads on this forum, where people bung the free-text dr data textfiles into posts. dr-loudness is a great site, uses a searchable database back-end and it's worth finding a way to help him.

    What is the title of that thread? Or a link please. I could't find it.
     
  25. Crawdad

    Crawdad Detroit Rock Citizen

    Robin Trower – Bridge Of Sighs (1985, CD)

    [​IMG]

    Label:
    Chrysalis – VK 41057
    Format:
    CD, Album, Reissue
    Country:
    US
    Released:
    1985 [originally 1974]
    Genre:
    Rock
    Style:
    Prog Rock

    foobar2000 1.6.6 / Dynamic Range Meter 1.1.1
    log date: 2021-09-16 07:43:37
    --------------------------------------------------------------------------------
    Analyzed: Robin Trower / Bridge of Sighs [1985 Remaster]
    --------------------------------------------------------------------------------
    DR Peak RMS Duration Track
    --------------------------------------------------------------------------------
    DR11 -2.92 dB -16.74 dB 5:01 01-Day of the Eagle
    DR12 -3.16 dB -17.24 dB 5:01 02-Bridge of Sighs
    DR12 -3.78 dB -19.62 dB 4:27 03-In This Place
    DR12 -3.78 dB -17.38 dB 3:55 04-The Fool and Me
    DR13 -2.16 dB -16.41 dB 7:33 05-Too Rolling Stoned
    DR12 -4.33 dB -18.29 dB 3:44 06-About to Begin
    DR11 -3.90 dB -16.50 dB 3:19 07-Lady Love
    DR10 -4.64 dB -16.75 dB 4:16 08-Little Bit of Sympathy
    --------------------------------------------------------------------------------
    Number of tracks: 8
    Official DR value: DR12
    Samplerate: 44100 Hz
    Channels: 2
    Bits per sample: 16
    Bitrate: 896 kbps
    Codec: FLAC
    ================================================================================

    Personal Opinion: One of those early CDs that doesn't sound so hot.
     

Share This Page

molar-endocrine