Pink Floyd in Hi-Res at HDtracks

Discussion in 'Music Corner' started by MemoInPR, Oct 19, 2021.

  1. MemoInPR

    MemoInPR Señor Memo Thread Starter

    HDtracks

    20% off discount code: FLOYDHIRES20
     
  2. Gamer_299

    Gamer_299 Well-Known Member

    im currently listening to the wall on amazon prime music, i thought it was a glitch for a second, it was saying ultra hd when i listened to it yesterday it was HD so this was JUST released.
     
  3. MemoInPR

    MemoInPR Señor Memo Thread Starter

    There also 7 David Gilmour titles released:

    HDtracks
     
    dtuck90 likes this.
  4. Joint Attention

    Joint Attention Forum Resident

    Location:
    Gig Harbor, WA
    Is The Wall the 2011 remaster or a new mastering?
     
  5. lordvader

    lordvader Forum Resident

    These are on Qobuz too ...
    States that the wall is the 2011 version

    Open Qobuz
     
    Riktator and Joint Attention like this.
  6. rontoon

    rontoon Animaniac

    Location:
    Highland Park, USA
    Wow! Been waiting for this day for a long time!
     
    wwright, jɑmbo, stereoptic and 4 others like this.
  7. Vinyl Socks

    Vinyl Socks The Buzz Driver

    Location:
    DuBois, PA
    FINALLY!!!!!!!!!!!!!!!!!!!!!!!!!!!!!!!!!!!!!!!!!!!!
     
  8. RJPinCA

    RJPinCA Well-Known Member

    Location:
    Lincoln, CA USA
    I just purchased The Wall from HDTracks.
    The PDF booklet states the 2011 remaster, but has a copyright date of 2016.

    foobar2000 1.6.1 / Dynamic Range Meter 1.1.1
    log date: 2021-10-18 21:29:38

    --------------------------------------------------------------------------------
    Analyzed: Pink Floyd / The Wall
    --------------------------------------------------------------------------------

    DR Peak RMS Duration Track
    --------------------------------------------------------------------------------
    DR12 -1.39 dB -17.25 dB 3:19 01-In the Flesh?
    DR14 -2.93 dB -21.29 dB 2:27 02-The Thin Ice
    DR13 -1.93 dB -21.40 dB 3:11 03-Another Brick in the Wall, Pt. 1
    DR14 -1.06 dB -18.66 dB 1:51 04-The Happiest Days of Our Lives
    DR15 -1.16 dB -18.97 dB 3:59 05-Another Brick in the Wall, Pt. 2
    DR17 -0.88 dB -21.43 dB 5:35 06-Mother
    DR11 -6.54 dB -21.13 dB 2:47 07-Goodbye Blue Sky
    DR11 -6.47 dB -20.99 dB 2:08 08-Empty Spaces
    DR15 -1.16 dB -18.44 dB 3:30 09-Young Lust
    DR15 -1.00 dB -20.69 dB 3:37 10-One of My Turns
    DR14 -2.63 dB -21.20 dB 4:16 11-Don't Leave Me Now
    DR14 -0.75 dB -17.56 dB 1:15 12-Another Brick in the Wall, Pt. 3
    DR8 -12.93 dB -27.64 dB 1:14 13-Goodbye Cruel World
    DR14 -0.79 dB -18.75 dB 4:40 14-Hey You
    DR12 -4.32 dB -23.64 dB 2:42 15-Is There Anybody Out There?
    DR12 -5.78 dB -22.54 dB 3:23 16-Nobody Home
    DR12 -6.93 dB -23.24 dB 1:33 17-Vera
    DR11 -3.55 dB -20.05 dB 1:28 18-Bring the Boys Back Home
    DR12 -0.84 dB -16.06 dB 6:22 19-Comfortably Numb
    DR14 -3.62 dB -20.40 dB 1:36 20-The Show Must Go On
    DR16 -0.66 dB -18.69 dB 4:16 21-In the Flesh
    DR15 -1.39 dB -18.52 dB 4:23 22-Run Like Hell
    DR12 -0.91 dB -16.94 dB 3:57 23-Waiting for the Worms
    DR12 -10.11 dB -34.11 dB 0:31 24-Stop
    DR14 -1.03 dB -19.78 dB 5:19 25-The Trial
    DR11 -18.41 dB -36.35 dB 1:44 26-Outside the Wall
    --------------------------------------------------------------------------------

    Number of tracks: 26
    Official DR value: DR13

    Samplerate: 96000 Hz
    Channels: 2
    Bits per sample: 24
    Bitrate: 2703 kbps
    Codec: FLAC
    ================================================================================
     
    Cliff, goodiesguy, johnny q and 8 others like this.
  9. walrus

    walrus Forum Resident

    Location:
    Minneapolis, MN
    I would bet money they’re all 2011 masters for those albums that had them.
     
  10. motionoftheocean

    motionoftheocean Senior Member

    Location:
    Circus Maximus
    It’s crazy that this just came out of the blue like this on a Monday night but I’m not going to question it.
     
  11. lordvader

    lordvader Forum Resident

    Has anyone found the high res version of Pulse on Qobuz? I've found all the other releases, but on the CD version of PULSE.
     
  12. Gamer_299

    Gamer_299 Well-Known Member

    im
    it seems to only be on hdtracks
     
  13. originalsnuffy

    originalsnuffy Socially distant and unstuck in time

    Location:
    Tralfalmadore
    So which of these are newly available in Hi Res? I think we already had DSOTM and WYWH. And the Gilmour years. Was the Wall in hi res on the box? (Obviously I don't have that one).

    The one I am most excited about is Animals. But hey I have Amazon HD so I can just click a button and there they are....
     
    sound chaser and fluffskul like this.
  14. Joint Attention

    Joint Attention Forum Resident

    Location:
    Gig Harbor, WA
    Apple Music is streaming the hi-res versions now as well.

    ETA: 24/192 of Pulse is on Apple Music as well.
     
  15. Gamer_299

    Gamer_299 Well-Known Member

    The wall, pulse, the final cut, animals, a collection of great dance songs (i like this version of money a lot) are all new Hi Res
    DSOTM, WYWH were only high res on SACD or immersion BDs.
     
  16. rontoon

    rontoon Animaniac

    Location:
    Highland Park, USA
    None of them were ever available at 192k! :righton:
     
    Fungusmungus and Billy Infinity like this.
  17. oneway23

    oneway23 Forum Resident

    Location:
    NY, US
    What a treat of a surprise on a Monday!

    Listening to Piper in high-res sounds great on Apple Music, but, I no longer have the 2011 CDs to compare, so, I'm not going to make any grand declarations as of yet.
    More listening required.
     
  18. Gamer_299

    Gamer_299 Well-Known Member

    true!
    i can't find any word on this by Pink Floyd, maybe tomorrow we will get news about why it was so random
     
    rontoon likes this.
  19. Vinyl Socks

    Vinyl Socks The Buzz Driver

    Location:
    DuBois, PA
    Full moon tomorrow. Obvious connection.
     
  20. Sis+erRay

    Sis+erRay Forum Resident

    Location:
    Europe
    Here are the DR numbers from my 2011 Wall immersion edition

    foobar2000 1.6.7 / Dynamic Range Meter 1.1.1
    --------------------------------------------------------------------------------
    Analyzed: Pink Floyd / The Wall
    --------------------------------------------------------------------------------

    DR Peak RMS Duration Track
    --------------------------------------------------------------------------------
    DR10 0.00 dB -14.10 dB 3:20 01-In The Flesh
    DR14 0.00 dB -18.08 dB 2:27 02-The Thin Ice
    DR13 0.00 dB -18.08 dB 3:12 03-Another Brick In The Wall (Part 1)
    DR12 0.00 dB -15.49 dB 1:51 04-The Happiest Days Of Our Lives
    DR14 0.00 dB -15.78 dB 3:59 05-Another Brick In The Wall (Part 2)
    DR15 0.00 dB -18.19 dB 5:35 06-Mother
    DR11 -3.46 dB -17.83 dB 2:47 07-Goodbye Blue Sky
    DR11 -3.40 dB -17.74 dB 2:08 08-Empty Spaces
    DR13 0.00 dB -15.27 dB 3:30 09-Young Lust
    DR13 0.00 dB -17.59 dB 3:37 10-One Of My Turns
    DR14 0.00 dB -17.92 dB 4:16 11-Don't Leave Me Now
    DR12 0.00 dB -14.33 dB 1:14 12-Another Brick In The Wall (Part 3)
    DR8 -9.61 dB -24.45 dB 1:17 13-Goodbye Cruel World
    --------------------------------------------------------------------------------

    Number of tracks: 13
    Official DR value: DR12

    Samplerate: 44100 Hz
    Channels: 2
    Bits per sample: 16
    Bitrate: 552 kbps
    Codec: FLAC
    ================================================================================

    foobar2000 1.6.7 / Dynamic Range Meter 1.1.1

    --------------------------------------------------------------------------------
    Analyzed: Pink Floyd / The Wall
    --------------------------------------------------------------------------------

    DR Peak RMS Duration Track
    --------------------------------------------------------------------------------
    DR12 0.00 dB -15.54 dB 4:40 01-Hey You
    DR12 -1.28 dB -20.37 dB 2:42 02-Is There Anybody Out There
    DR12 -2.85 dB -19.36 dB 3:23 03-Nobody Home
    DR11 -3.92 dB -20.11 dB 1:33 04-Vera
    DR11 -1.44 dB -17.06 dB 1:27 05-Bring The Boys Back Home
    DR10 0.00 dB -12.87 dB 6:22 06-Comfortably Numb
    DR14 -0.63 dB -17.21 dB 1:37 07-The Show Must Go On
    DR13 0.00 dB -15.55 dB 4:16 08-In The Flesh
    DR14 0.00 dB -15.31 dB 4:24 09-Run Like Hell
    DR10 0.00 dB -13.74 dB 3:57 10-Waiting For The Worms
    DR12 -7.08 dB -31.26 dB 0:31 11-Stop
    DR13 0.00 dB -16.65 dB 5:19 12-The Trial
    DR11 -14.94 dB -33.24 dB 1:46 13-Outside The Wall
    --------------------------------------------------------------------------------

    Number of tracks: 13
    Official DR value: DR12

    Samplerate: 44100 Hz
    Channels: 2
    Bits per sample: 16
    Bitrate: 559 kbps
    Codec: FLAC
    ================================================================================
     
    Ulli, SinnerSaint and jfeldt like this.
  21. SocProf

    SocProf Well-Known Member

    Location:
    Denver, CO
    I would give Qobuz a day or two to catch up. I'm sure they will sell all the PF and Gilmour releases that HDtracks just added.
     
  22. MemoInPR

    MemoInPR Señor Memo Thread Starter

    First complain…

    The tracks on DSOTM and The Wall are available as 96/24 whereas the same tracks on the A Foot in the Door: The Best of Pink Floyd collection are 192/24. :sigh:
     
    Icenine1 likes this.
  23. Icenine1

    Icenine1 Forum Resident

    I just got the email too from HDTracks. Wow!!!
     
  24. Icenine1

    Icenine1 Forum Resident

    The Wall DR looks great
     
    Ulli and rontoon like this.
  25. oneway23

    oneway23 Forum Resident

    Location:
    NY, US
    I don't have the fancy pants SACDs on DSotM or WYWH, though, I'd imagine they were native 24/88. Interesting to see them both at 24/96 and/or 24/192
    In any case, the few songs I've listed to on The Wall sounded great, and WYWH title track sounds absolutely fantastic.

    Gonna be a long day of listening tomorrow. Anyone have any sugar cubes they'd care to run by??:D
     
    poe_man, Icenine1 and rontoon like this.

Share This Page

molar-endocrine