Any Info on Supertramp "Breakfast" Reissue?

Discussion in 'Music Corner' started by avanti1960, Nov 27, 2017.

  1. avanti1960

    avanti1960 Forum Resident Thread Starter

    Location:
    Chicago metro, USA
    Certain sites have been listing "pre-order" for what seems like ages for the new MoFi reissue of Supertamp "Breakfast in America" SACD and LP.

    Anyone have any info when these are due (if ever)? Thanks.
     
  2. pdenny

    pdenny Blow up your TV

    It's one of many items promised for some time but as yet undelivered to the masses. The Music Direct catalog is an exercise in frustration sometimes (although the current one is the most beautiful I've ever seen in print)
     
    ScramMan2 likes this.
  3. MYKE

    MYKE Columbia 6 Eye Mono - 1958

    You're in Chicago. Stop by, and ask them.
     
  4. I haven't looked nor have I heard about another reissue of BIA. However, it wouldn't surprise me if this were tackled by Mofi's One-Step or Chad's UHQR.
     
  5. HappyJack

    HappyJack Forum Resident

    Location:
    Pennsylvania, USA
    Amazon has pre-order for MFSL Breakfast In America SACD. Release date is July 31, 2018.
     
    Rockstar2112 likes this.
  6. formu_la

    formu_la Pigs whisperer

    Location:
    Toronto, Canada
    No need for it, as SHM-SACD is too good.
     
    sjaca and Chemguy like this.
  7. RubenH

    RubenH Forum Resident

    Location:
    Atlanta
    You must be new here :D
     
    klockwerk, oneslip17, dreamer and 2 others like this.
  8. Chemguy

    Chemguy Forum Resident

    A One-Step of BIA or COTC would be great, and the first worthy of the treatment, IMO. The first three have been suspect choices.
     
    Johnny Vinyl likes this.
  9. beatleswho

    beatleswho Forum Resident

    Location:
    Chile
    Any news about this Mofi Lp Breakfast In America?
     
    c-eling likes this.
  10. c-eling

    c-eling Forum Resident

    Sounds great, highly recommended :winkgrin:
    [​IMG]
     
  11. Vandenville

    Vandenville Well-Known Member

    Location:
    United Kingdom
    Amazon UK gave me a release date of today (April 6th), but changed that today to the "We need more time..." standard phrase. They suggested I should buy the SHM-SACD instead (which is in stock) :)

    Since noone has heard the Mofi SACD yet we dont know which one is the better version...
     
  12. KLM

    KLM Forum Resident

    My MOFI SACD shipped today.
     
  13. sekaer

    sekaer Forum Resident

    Location:
    New York City
    Was just listening to this record today...absolute brilliance. My dad used to hang out on the beach with Supertramp in Manhattan Beach, CA when I was a kid. This was pre-Crime of the Century. I sort of remember them!
     
  14. DonnyMe

    DonnyMe Forum Resident

    Location:
    NW Indiana
    I will be interested in feedback and reviews of this release. I hope it was worth the wait!
     
  15. Strat-Mangler

    Strat-Mangler Forum Resident

    Location:
    Toronto
  16. pdenny

    pdenny Blow up your TV

  17. teag

    teag Forum Resident

    Location:
    Colorado
    When will the vinyl ship???
     
  18. BrucePadgett

    BrucePadgett Forum Resident

    Just ordered the SACD as well. Strangely, the receipt listed “TBA” for the item, although it’s labeled in-stock on the product page. Given that KLM above noted his copy is on the way, it’s probably just a glitch.
     
  19. pdenny

    pdenny Blow up your TV

    Ordered!
     
  20. BrucePadgett

    BrucePadgett Forum Resident

    Got another order confirmation email from MD, and it says the SACD is indeed in-stock. Cannot wait to compare it to the 2017 Japanese SACD and my current benchmark, the audio Blu-ray.

    Now bring on the new vinyl!
     
    LoveYourLife likes this.
  21. Just_a_Dude

    Just_a_Dude Active Member

    Ordered mine on the 18th direct from MOFI.
    Delivered Saturday...except that they shipped it to another address in my account history.
    Fortunately it is a buddy's address so I'll get it from him soon. Looking forward
    to this release as I have never really been that super pleased with any release of this title
    outside of vinyl.
     
    George P likes this.
  22. pdenny

    pdenny Blow up your TV

  23. Just_a_Dude

    Just_a_Dude Active Member

    The replacement came today. I listened to the Gone Hollywood redbook layer in the car and was
    pleased, but saved the rest for home. I just ripped the redbook with EAC (though
    there was no precedence in the dbs) and DR'd it up with TT1.4 for what it's worth.
    I will do a side by side with both layers and my US A&M+ and give thoughts here.

    83.7 %/86.5 %/72.4 %/71.2 %/90.2 %/59.6 %/69.7 %/79.8 %/44.7 %/93.6 %

    DR11 -1.54 dB -16.99 dB 01 Gone Hollywood.wav
    DR12 -1.26 dB -16.37 dB 02 The Logical Song.wav
    DR13 -2.80 dB -18.54 dB 03 Goodbye Stranger.wav
    DR13 -2.95 dB -18.52 dB 04 Breakfast In America.wav
    DR12 -0.89 dB -15.78 dB 05 Oh Darling.wav
    DR12 -4.48 dB -20.79 dB 06 Take The Long Way Home.wav
    DR13 -3.13 dB -21.98 dB 07 Lord Is It Mine.wav
    DR11 -1.96 dB -15.67 dB 08 Just Another Nervous Wreck.wav
    DR12 -6.98 dB -21.87 dB 09 Casual Conversations.wav
    DR13 -0.57 dB -15.80 dB 10 Child Of Vision.wav
     
    Musicisthebest and c-eling like this.
  24. klockwerk

    klockwerk Forum Resident

    Location:
    Ohio USA
    So is this the same mastering as the earlier MFSL UDCD 534 released in 1990, or have they taken a second 'stab at it'. I ordered this yesterday, as either way, I need a copy.
     
  25. DeRosa

    DeRosa Forum Resident

    I'm waiting for the vinyl version, but those numbers are very encouraging.
     

Share This Page